Nathaniel Rateliff | The Staves | Watch movie

Worlds.Deadliest.Drivers.S01E07.HDTV.x264-NORiTE

DOWNLOAD TORRENT DOWNLOAD Watch Online

Posted on November 14, 2017 in Series » Misc , verified torrent

Size: 177.6 MB , Seeds: 0 , Peers: 2 ( Updated November 20, 2017 )

* Download via Magnet Link , * To download files you need a Bittorrent Client , * How to download torrents from Bit Torrent Scene?

Scrape History ( seeds + peers )

Internal Files

Worlds.Deadliest.Drivers.S01E07.HDTV.x264-NORiTE
worlds.deadliest.drivers.s01e07.hdtv-norite.mkv   168.18 MB
worlds.deadliest.drivers.s01e07.hdtv-norite.nfo   1.55 KB

Hash Code

bd1ef032f3c61e6c4af72fa78f767580961d3234

Description

Worlds.Deadliest.Drivers.S01E07.HDTV.x264-NORiTE

SCREENSHOT

Complete name : worlds.deadliest.drivers.s01e07.hdtv-norite.mkv
Format : Matroska
Format version : Version 4 / Version 2
File size : 168 MiB
Duration : 25 min 15 s
Overall bit rate : 931 kb/s
Encoded date : UTC 2017-11-14 14:15:53
Writing application : mkvmerge v9.6.0 ('Slave To Your Mind') 64bit
Writing library : libebml v1.3.4 + libmatroska v1.4.5

Video
ID : 1
Format : AVC
Format/Info : Advanced Video Codec
Format profile : [email protected]
Format settings, CABAC : Yes
Format settings, ReFrames : 5 frames
Codec ID : V_MPEG4/ISO/AVC
Duration : 25 min 15 s
Bit rate : 802 kb/s
Width : 720 pixels
Height : 404 pixels
Display aspect ratio : 16:9
Frame rate mode : Constant
Frame rate : 50.000 FPS
Color space : YUV
Chroma subsampling : 4:2:0
Bit depth : 8 bits
Scan type : Progressive
Bits/(Pixel*Frame) : 0.055
Stream size : 145 MiB (86%)
Writing library : x264 core 152 r2851 ba24899
Encoding settings : cabac=1 / ref=5 / deblock=1:0:0 / analyse=0x3:0x113 / me=hex / subme=8 / psy=1 / psy_rd=1.00:0.00 / mixed_ref=1 / me_range=16 / chroma_me=1 / trellis=2 / 8x8dct=1 / cqm=0 / deadzone=21,11 / fast_pskip=1 / chroma_qp_offset=-2 / threads=12 / lookahead_threads=2 / sliced_threads=0 / nr=0 / decimate=1 / interlaced=0 / bluray_compat=0 / stitchable=1 / constrained_intra=0 / bframes=3 / b_pyramid=2 / b_adapt=1 / b_bias=0 / direct=3 / weightb=1 / open_gop=0 / weightp=2 / keyint=250 / keyint_min=25 / scenecut=40 / intra_refresh=0 / rc_lookahead=50 / rc=crf / mbtree=1 / crf=22.0 / qcomp=0.60 / qpmin=0 / qpmax=69 / qpstep=4 / ip_ratio=1.40 / aq=1:1.00
Default : Yes
Forced : No
Color range : Limited
Color primaries : BT.709
Transfer characteristics : BT.709
Matrix coefficients : BT.709

Audio
ID : 2
Format : AAC
Format/Info : Advanced Audio Codec
Format profile : LC
Codec ID : A_AAC
Duration : 25 min 15 s
Bit rate : 125 kb/s
Channel(s) : 2 channels
Channel positions : Front: L R
Sampling rate : 48.0 kHz
Frame rate : 46.875 FPS (1024 spf)
Compression mode : Lossy
Stream size : 22.7 MiB (13%)
Default : Yes
Forced : No

SCREENSHOT

SCREENSHOT

Click To View Screenshot

Click To View Screenshot

Click To View Screenshot

Torrent location

http://www.1337x.to/torrent/2590259/Worlds-Deadliest-Drivers-S01E07-HDTV-x264-NORiTE/

Trackers

Refresh Leechers : Updated November 20, 2017

1. http://bigfoot1942.sektori.org:6969/announce

2. http://tracker2.wasabii.com.tw:6969/announce

3. http://tracker.opentrackr.org/announce

4. http://announce.torrentsmd.com:6969/announce

5. http://tracker.trackerfix.com/announce

6. http://tracker.opentrackr.org/announce

7. udp://explodie.org:6969/announce

8. udp://mgtracker.org:6969/announce

9. udp://asnet.pw:2710/announce

10. udp://tracker.mgtracker.org:2710/announce

11. udp://tracker4.piratux.com:6969/announce

12. udp://tracker.trackerfix.com:80/announce

13. udp://tracker.pomf.se:80/announce

14. udp://tracker.x4w.co:6969/announce

15. udp://castradio.net:6969/announce

16. udp://ipv4.tracker.harry.lu:80/announce

17. udp://tracker.mg64.net:6881/announce

18. udp://tracker.sktorrent.net:6969/announce

19. udp://tracker.blackunicorn.xyz:6969/announce

20. udp://tracker.internetwarriors.net:1337/announce

21. udp://public.popcorn-tracker.org:6969/announce

22. udp://glotorrents.pw:6969/announce

23. udp://tracker.vanitycore.co:6969/announce

24. udp://tracker.trackerfix.com:80/announce

25. udp://p4p.arenabg.ch:1337/announce

26. udp://9.rarbg.me:2710/announce

27. udp://tracker.zer0day.to:1337/announce

28. udp://tracker.opentrackr.org:1337/announce

29. udp://tracker.pirateparty.gr:6969/announce

30. udp://9.rarbg.to:2710/announce

31. udp://eddie4.nl:6969/announce

32. udp://tracker.coppersurfer.tk:6969/announce

33. udp://tracker.leechers-paradise.org:6969/announce

34. udp://tracker.zer0day.to:1337/announce

35. udp://public.popcorn-tracker.org:6969/announce

36. udp://tracker.grepler.com:6969/announce

37. udp://ipv4.tracker.harry.lu:80/announce

38. udp://9.rarbg.to:2710/announce

39. udp://9.rarbg.me:2710/announce

40. udp://p4p.arenabg.com:1337/announce

41. udp://p4p.arenabg.ch:1337/announce

42. udp://tracker.opentrackr.org:1337/announce

43. udp://tracker.leechers-paradise.org:6969/announce

44. udp://eddie4.nl:6969/announce

45. udp://shadowshq.yi.org:6969/announce

46. udp://tracker.pirateparty.gr:6969/announce

47. udp://tracker.coppersurfer.tk:6969/announce

Comments

You must log in to add a comment.

Embed Code

Sharing Widget

Related torrents

FILENAME SIZE SEEDS PEERS ADDED UPD
[i] Worlds.Deadliest.Drivers.S01E07.XviD-AFG 442.39 MB 1 3 6 days 20 hours
[i] Worlds.Deadliest.Drivers.S01E07.480p.x264-mSD 161.91 MB 0 0 6 days 20 hours
[i] Worlds.Deadliest.Drivers.S01E07.720p.HDTV.x264-NORiTE 498 MB 0 2 6 days 19 hours

Top Series ( auto generated report )

FILENAME SIZE SEEDS PEERS ADDED UPD
[i] Greys.Anatomy.S14E08.HDTV.x264-KILLERS[eztv].mkv 304.41 MB 1770 124 4 days 2 hours
[i] Gotham.S04E09.HDTV.x264-SVA[eztv].mkv 279.29 MB 1292 130 4 days 1 hour
[i] The.Big.Bang.Theory.S11E08.HDTV.x264-SVA[eztv].mkv 136.27 MB 3540 517 4 days 3 days
[i] Supernatural.S13E06.HDTV.x264-SVA[eztv].mkv 220.29 MB 1066 82 4 days 1 hour
[i] Lucifer.S03E08.HDTV.x264-SVA[eztv].mkv 298.79 MB 3168 2902 8 hours 6 hours
[i] Supergirl.S03E07.HDTV.x264-SVA[eztv].mkv 235.41 MB 3004 2388 8 hours 6 hours
[i] Young.Sheldon.S01E04.HDTV.x264-SVA[eztv].mkv 133.77 MB 2806 446 4 days 3 days
[i] Shameless.US.S08E03.WEB.h264-CONVOY[eztv].mkv 818.65 MB 2117 464 1 day 9 hours
[i] The.Good.Doctor.S01E08.HDTV.x264-KILLERS[eztv].mkv 247.91 MB 2026 1775 8 hours 5 hours
[i] Riverdale.US.S02E06.HDTV.x264-KILLERS[eztv].mkv 203.91 MB 671 190 5 days 1 hour