Танки: сделано в России (1-12 серии из 12) (2013) WЕBRір 720р | Barracuda | Ногу Свело! - Материки Моей Планеты (2017)

Tulip.Fever.2017.HDRip.XviD.AC3-iFT

DOWNLOAD TORRENT DOWNLOAD Watch Online

Posted on November 14, 2017 in Movies » Misc , verified torrent

Size: 1.74 GB , Seeds: 4 , Peers: 6 ( Updated November 20, 2017 )

* Download via Magnet Link , * To download files you need a Bittorrent Client , * How to download torrents from Bit Torrent Scene?

Scrape History ( seeds + peers )

Internal Files

Tulip.Fever.2017.HDRip.XviD.AC3-iFT
NFO-iFT.nfo   636 Byte
Sample.avi   14.34 MB
Tulip.Fever.2017.HDRip.XviD.AC3-iFT.avi   1.72 GB

Hash Code

ff4397ccc4a36aa155f275170509e30f072a7c8c

Description

Tulip.Fever.2017.HDRip.XviD.AC3-iFT

ImDb: http://www.imdb.com/title/tt0491203

SCREENSHOT

Complete name : Tulip.Fever.2017.HDRip.XviD.AC3-iFT.avi
Format : AVI
Format/Info : Audio Video Interleave
Format profile : OpenDML
Format settings : rec
File size : 1.72 GiB
Duration : 1 h 44 min
Overall bit rate : 2 347 kb/s
Writing application : AVI-Mux GUI 1.17.8.3, Feb 16 201019:42:50

Video
ID : 0
Format : MPEG-4 Visual
Format profile : Advanced [email protected]
Format settings, BVOP : 2
Format settings, QPel : No
Format settings, GMC : No warppoints
Format settings, Matrix : Default (H.263)
Muxing mode : Packed bitstream
Codec ID : XVID
Codec ID/Hint : XviD
Duration : 1 h 44 min
Bit rate : 1 958 kb/s
Width : 720 pixels
Height : 304 pixels
Display aspect ratio : 2.35:1
Frame rate : 24.000 FPS
Color space : YUV
Chroma subsampling : 4:2:0
Bit depth : 8 bits
Scan type : Progressive
Compression mode : Lossy
Bits/(Pixel*Frame) : 0.373
Stream size : 1.43 GiB (83%)
Writing library : XviD 73

Audio
ID : 1
Format : AC-3
Format/Info : Audio Coding 3
Format settings, Endianness : Big
Codec ID : 2000
Duration : 1 h 44 min
Bit rate mode : Constant
Bit rate : 384 kb/s
Channel(s) : 6 channels
Channel positions : Front: L C R, Side: L R, LFE
Sampling rate : 48.0 kHz
Frame rate : 31.250 FPS (1536 spf)
Bit depth : 16 bits
Compression mode : Lossy
Stream size : 288 MiB (16%)
Alignment : Aligned on interleaves
Interleave, duration : 64 ms (1.54 video frames)
Interleave, preload duration : 192 ms
Title : Tulip.track_2
Service kind : Complete Main

SCREENSHOT

SCREENSHOT

Click To View Screenshot

Click To View Screenshot

Click To View Screenshot

Torrent location

http://www.1337x.to/torrent/2589150/Tulip-Fever-2017-HDRip-XviD-AC3-iFT/

Trackers

Refresh Leechers : Updated November 20, 2017

1. http://bigfoot1942.sektori.org:6969/announce

2. http://tracker2.wasabii.com.tw:6969/announce

3. http://tracker.opentrackr.org/announce

4. http://announce.torrentsmd.com:6969/announce

5. http://tracker.trackerfix.com/announce

6. http://tracker.opentrackr.org/announce

7. udp://explodie.org:6969/announce

8. udp://mgtracker.org:6969/announce

9. udp://asnet.pw:2710/announce

10. udp://tracker.mgtracker.org:2710/announce

11. udp://tracker4.piratux.com:6969/announce

12. udp://tracker.trackerfix.com:80/announce

13. udp://tracker.pomf.se:80/announce

14. udp://tracker.x4w.co:6969/announce

15. udp://castradio.net:6969/announce

16. udp://ipv4.tracker.harry.lu:80/announce

17. udp://tracker.mg64.net:6881/announce

18. udp://tracker.sktorrent.net:6969/announce

19. udp://tracker.blackunicorn.xyz:6969/announce

20. udp://tracker.internetwarriors.net:1337/announce

21. udp://public.popcorn-tracker.org:6969/announce

22. udp://glotorrents.pw:6969/announce

23. udp://tracker.vanitycore.co:6969/announce

24. udp://tracker.trackerfix.com:80/announce

25. udp://p4p.arenabg.ch:1337/announce

26. udp://9.rarbg.me:2710/announce

27. udp://tracker.zer0day.to:1337/announce

28. udp://tracker.opentrackr.org:1337/announce

29. udp://tracker.pirateparty.gr:6969/announce

30. udp://9.rarbg.to:2710/announce

31. udp://eddie4.nl:6969/announce

32. udp://tracker.coppersurfer.tk:6969/announce

33. udp://tracker.leechers-paradise.org:6969/announce

34. udp://tracker.zer0day.to:1337/announce

35. udp://public.popcorn-tracker.org:6969/announce

36. udp://tracker.grepler.com:6969/announce

37. udp://ipv4.tracker.harry.lu:80/announce

38. udp://9.rarbg.to:2710/announce

39. udp://9.rarbg.me:2710/announce

40. udp://p4p.arenabg.com:1337/announce

41. udp://p4p.arenabg.ch:1337/announce

42. udp://tracker.opentrackr.org:1337/announce

43. udp://tracker.leechers-paradise.org:6969/announce

44. udp://eddie4.nl:6969/announce

45. udp://shadowshq.yi.org:6969/announce

46. udp://tracker.pirateparty.gr:6969/announce

47. udp://tracker.coppersurfer.tk:6969/announce

Comments

You must log in to add a comment.

Embed Code

Sharing Widget

Related torrents

FILENAME SIZE SEEDS PEERS ADDED UPD
[i] Tulip.Fever.2017.HDRip.XviD.AC3-EVO 1.38 GB 5 4 6 days 19 hours

Top Movies ( auto generated report )

FILENAME SIZE SEEDS PEERS ADDED UPD
[i] Rememory (2017) [720p] [YTS AG] 836.63 MB 2190 863 3 days 5 hours
[i] Rememory (2017) [1080p] [YTS AG] 1.72 GB 2037 831 3 days 1 day
[i] 6 Below Miracle on the Mountain (2017) [720p] [YTS AG] 720.98 MB 1710 1045 1 day 9 hours
[i] Tulip Fever (2017) [720p] [YTS AG] 771.4 MB 1373 600 3 days 4 hours
[i] Super Dark Times (2017) [720p] [YTS AG] 750.11 MB 1421 1013 1 day 23 hours
[i] 6 Below Miracle on the Mountain (2017) [1080p] [YTS AG] 1.49 GB 1392 665 1 day 9 hours
[i] downloadhub in Tumhari Sulu (2017) Hindi 1CD PRE x264 AAC - Downloadhub 697.92 MB 1048 310 2 days 6 hours
[i] Beta Test (2016) [720p] [YTS AG] 640.68 MB 1198 486 3 days 1 day
[i] Justice League 2017 HDCAM NEW FULL Clean English Audio AAC x264 - EiE 1 GB 1157 401 1 day 10 hours
[i] Tulip Fever (2017) [1080p] [YTS AG] 1.6 GB 1055 390 3 days 4 hours