Fate/Apocrypha | Alice Dodd | Car Mechanic Simulator 2018 (2017) PC торрент
Your IP Address is . Location is Your ISP and Government can track your torrent activity! Hide your IP with a VPN!

Shut Eye Season 2. revittony

DOWNLOAD TORRENT DOWNLOAD Watch Online

Posted by revittony •251 on January 12, 2018 in Series » Misc , verified torrent

Size: 2.48 GB , Seeds: 8 , Peers: 6 ( Updated January 18, 2018 )

* Download via Magnet Link , * To download files you need a Bittorrent Client , * How to download torrents from Bit Torrent Scene?

Scrape History ( seeds + peers )

Internal Files

Shut Eye Season 2
S02E01 We're Not in Kansas Anymore.mkv   235.78 MB
S02E02 Shortchanged.mkv   239.77 MB
S02E03 Guys and Dolls.mkv   230.95 MB
S02E04 Are You Listening.mkv   256.08 MB
S02E05 Charles the Magnificent.mkv   277.07 MB
S02E06 Crimes and Punishments.mkv   263.65 MB
S02E07 Purple Hearts.mkv   247 MB
S02E08 Karma Chameleon.mkv   256.71 MB
S02E09 Verite.mkv   237.61 MB
S02E10 There's No Place Like Home.mkv   297.76 MB

Hash Code

89fa954dd98a01986c2710a277ed8a649f5d9f89

Description

Format : Matroska
Format version : Version 4 / Version 2
Overall bit rate : 654 kb/s
Encoded date : UTC 2017-12-06 07:13:27
Writing application : mkvmerge v8.8.0 ('Wind at my back') 64bit
Writing library : libebml v1.3.3 + libmatroska v1.4.4

Video
ID : 1
Format : AVC
Format/Info : Advanced Video Codec
Format profile : [email protected]
Format settings : CABAC / 5 Ref Frames
Format settings, CABAC : Yes
Format settings, RefFrames : 5 frames
Codec ID : V_MPEG4/ISO/AVC
Duration : 50 min 24 s
Bit rate : 588 kb/s
Width : 704 pixels
Height : 396 pixels
Display aspect ratio : 16:9
Frame rate mode : Constant
Frame rate : 23.976 (24000/1001) FPS
Color space : YUV
Chroma subsampling : 4:2:0
Bit depth : 8 bits
Scan type : Progressive
Bits/(Pixel*Frame) : 0.088
Stream size : 212 MiB (90%)
Default : Yes
Forced : No

Audio
ID : 2
Format : AAC
Format/Info : Advanced Audio Codec
Format profile : HE-AAC / LC
Format settings : Explicit
Codec ID : A_AAC-2
Duration : 50 min 24 s
Bit rate : 64.0 kb/s
Channel(s) : 2 channels
Channel positions : Front: L R
Sampling rate : 48.0 kHz / 24.0 kHz
Frame rate : 23.438 FPS (1024 SPF)
Compression mode : Lossy
Stream size : 23.1 MiB (10%)
Default : Yes
Forced : No

Trackers

Refresh Leechers : Updated January 18, 2018

1. udp://tracker.openbittorrent.com:80/announce

2. udp://tracker.publicbt.com:80/announce

3. udp://tracker.coppersurfer.tk:6969/announce

4. udp://tracker.zer0day.to:1337/announce

5. udp://tracker.leechers-paradise.org:6969

Comments

You must log in to add a comment.

Embed Code

Sharing Widget

Top Series ( auto generated report )

FILENAME SIZE SEEDS PEERS ADDED UPD
[i] The.Flash.2014.S04E10.HDTV.x264-SVA[ettv] 275.2 MB 5240 1574 2 days 1 day
[i] Vikings.S08E08.HDTV.x264-KILLERS[ettv] 358.07 MB 3680 153 1 week 2 days
[i] Star.Trek.Discovery.S01E11.WEBRip.x264-TBS[ettv] 371.2 MB 3461 807 4 days 3 days
[i] Shameless.US.S08E10.WEBRip.x264-PBS[ettv] 408.51 MB 3036 515 4 days 3 days
[i] Supergirl.S03E10.HDTV.x264-SVA[ettv] 275.2 MB 2689 711 3 days 2 days
[i] The.Gifted.S01E12-E13.HDTV.x264-SVA[ettv] 623.61 MB 2634 1098 3 days 2 days
[i] The.Grand.Tour.S02E06.WEB.h264-SKGTV[ettv] 675.2 MB 2201 212 1 week 1 day
[i] The.Big.Bang.Theory.S11E13.HDTV.x264-SVA[ettv] 165.06 MB 2063 419 1 week 1 day
[i] The.Good.Doctor.S01E12.HDTV.x264-KILLERS[ettv] 211.2 MB 1908 508 3 days 2 days
[i] Marvels.Agents.of.S.H.I.E.L.D.S05E07.HDTV.x264-BATV[ettv] 211.2 MB 790 37 6 days 1 hour