Offtop - O Wszystkim I O Tym Co Komu W Duszy Gra! | Star Wars The Last Jedi 2017 FULL HDCAM ENGLiSH x264 HQMIC-DADDY | Business Studies Controlled Assessment
Your IP Address is . Location is Your ISP and Government can track your torrent activity! Hide your IP with a VPN!

Second Nature 2017 HDRip XviD AC3 LLG

DOWNLOAD TORRENT DOWNLOAD Watch Online

Posted by LifeLongg •247 on January 12, 2018 in Movies » Comedy , verified torrent

Size: 850.07 MB , Seeds: 10 , Peers: 6 ( Updated January 13, 2018 - Refresh )

* Download via Magnet Link , * To download files you need a Bittorrent Client , * How to download torrents from Bit Torrent Scene?

Scrape History ( seeds + peers )

Internal Files

Second Nature 2017.HDRip.XviD.AC3.LLG
Sample.ts   12.05 MB
Second Nature 2017.HDRip.XviD.AC3.LLG.mp4   838.02 MB

Hash Code

bfccfead267d45286285de6a18384cd567279654

Description

******************************Thumbnail:**********************

SCREENSHOT

******************************Screenshots:********************

Screenshot 1


Screenshot 2


Screenshot 3


Screenshot 4


Screenshot 5

**************************************************************

Complete name : Second Nature 2017.HDRip.XviD.AC3.LLG.mp4
Format : MPEG-4
Format profile : Base Media
Codec ID : isom (isom/iso2/avc1/mp41)
File size : 838 MiB
Duration : 1 h 20 min
Overall bit rate : 1 463 kb/s
Writing application : Lavf57.56.101

Video
ID : 1
Format : AVC
Format/Info : Advanced Video Codec
Format profile : [email protected]
Format settings : CABAC / 4 Ref Frames
Format settings, CABAC : Yes
Format settings, RefFrames : 4 frames
Codec ID : avc1
Codec ID/Info : Advanced Video Coding
Duration : 1 h 20 min
Bit rate : 1 200 kb/s
Width : 720 pixels
Height : 400 pixels
Display aspect ratio : 16:9
Frame rate mode : Constant
Frame rate : 23.976 (23976/1000) FPS
Color space : YUV
Chroma subsampling : 4:2:0
Bit depth : 8 bits
Scan type : Progressive
Bits/(Pixel*Frame) : 0.174
Stream size : 688 MiB (82%)


Audio
ID : 2
Format : AC-3
Format/Info : Audio Coding 3
Codec ID : ac-3
Duration : 1 h 20 min
Bit rate mode : Constant
Bit rate : 256 kb/s
Channel(s) : 6 channels
Channel positions : Front: L C R, Side: L R, LFE
Sampling rate : 48.0 kHz
Frame rate : 31.250 FPS (1536 SPF)
Bit depth : 16 bits
Compression mode : Lossy
Stream size : 147 MiB (18%)
Service kind : Complete Main
Default : Yes
Alternate group : 1

Trackers

Refresh Leechers : Updated January 13, 2018

1. udp://tracker.openbittorrent.com:80/announce

2. udp://tracker.opentrackr.org:1337/announce

Comments

You must log in to add a comment.

Embed Code

Sharing Widget

Related torrents

FILENAME SIZE SEEDS PEERS ADDED UPD
[i] Second Nature 2017.HDRip.XviD.AC3-EVO 1.4 GB 32 14 6 days 8 hours
[i] Second Nature 2017.HDRip.XviD.AC3-EVO 1.39 GB 9 4 6 days 11 hours

Top Movies ( auto generated report )

FILENAME SIZE SEEDS PEERS ADDED UPD
[i] The.Shape.of.Water.2017.DVDScr.XVID.AC3.HQ.Hive-CM8[EtMovies] 1.74 GB 5629 2558 1 week 18 hours
[i] Blade Runner 2049 (2017) [1080p] [YTS AG] 2.51 GB 7969 3663 1 week 2 days
[i] Blade Runner 2049 (2017) [720p] [YTS AG] 1.2 GB 5639 1748 1 week 16 hours
[i] Justice League 2017 1080p KORSUB HDRip x264 AAC2 0-STUTTERSHIT 3.88 GB 4053 995 3 weeks 1 week
[i] Three.Billboards.Outside.Ebbing,Missouri.2017.DVDScr.XVID.AC3.HQ.Hive-CM8[EtMovies] 1.53 GB 3750 1241 3 weeks 1 week
[i] It (2017) [720p] [YTS AG] 997.65 MB 3302 940 3 weeks 2 days
[i] Happy Death Day (2017) [720p] [YTS AG] 708.01 MB 2553 807 1 week 1 day
[i] Happy Death Day (2017) [1080p] [YTS AG] 1.46 GB 2456 793 1 week 3 days
[i] Jigsaw 2017 1080p Web DL x264 AC3 TiTAN[EtHD] 3.21 GB 2449 1124 1 week 1 day
[i] It (2017) [1080p] [YTS AG] 2.06 GB 2422 419 3 weeks 3 days