http://estream.to/9a1j5sy4jc6x.html | http://www.thevideo.me/embed-iwssqobi9fo7-769×433.html | http://estream.to/embed-e40c65w8y6gk.html

No Beast So Fierce 2017.HDRip.XviD.AC3-EVO

DOWNLOAD TORRENT DOWNLOAD Watch Online

Posted on November 14, 2017 in Movies » Misc , verified torrent

Size: 1.37 GB , Seeds: 3 , Peers: 1 ( Updated November 20, 2017 - Refresh )

* Download via Magnet Link , * To download files you need a Bittorrent Client , * How to download torrents from Bit Torrent Scene?

Scrape History ( seeds + peers )

Internal Files

No Beast So Fierce 2017.HDRip.XviD.AC3-EVO
No Beast So Fierce 2017.HDRip.XviD.AC3-EVO.avi   1.36 GB
No Beast So Fierce 2017.HDRip.XviD.AC3-EVO.nfo   700 Byte
sample.avi   6.66 MB

Hash Code

25a4b598374fabf7e00063e3cb854e57f8ccbfe6

Description

No Beast So Fierce 2017.HDRip.XviD.AC3-EVO

ImDb: http://www.imdb.com/title/tt3862762

SCREENSHOT

Complete name : No Beast So Fierce 2017.HDRip.XviD.AC3-EVO.avi
Format : AVI
Format/Info : Audio Video Interleave
File size : 1.36 GiB
Duration : 1 h 25 min
Overall bit rate : 2 288 kb/s
Writing library : VirtualDub build 32593/release

Video
ID : 0
Format : MPEG-4 Visual
Format profile : Advanced [email protected]
Format settings, BVOP : 2
Format settings, QPel : No
Format settings, GMC : No warppoints
Format settings, Matrix : Default (H.263)
Muxing mode : Packed bitstream
Codec ID : XVID
Codec ID/Hint : XviD
Duration : 1 h 25 min
Bit rate : 1 895 kb/s
Width : 720 pixels
Height : 304 pixels
Display aspect ratio : 2.35:1
Frame rate : 23.976 (24000/1001) FPS
Color space : YUV
Chroma subsampling : 4:2:0
Bit depth : 8 bits
Scan type : Progressive
Compression mode : Lossy
Bits/(Pixel*Frame) : 0.361
Stream size : 1.13 GiB (83%)
Writing library : XviD 66

Audio
ID : 1
Format : AC-3
Format/Info : Audio Coding 3
Format settings, Endianness : Big
Codec ID : 2000
Duration : 1 h 25 min
Bit rate mode : Constant
Bit rate : 384 kb/s
Channel(s) : 6 channels
Channel positions : Front: L C R, Side: L R, LFE
Sampling rate : 48.0 kHz
Frame rate : 31.250 FPS (1536 spf)
Bit depth : 16 bits
Compression mode : Lossy
Stream size : 234 MiB (17%)
Alignment : Aligned on interleaves
Interleave, duration : 42 ms (1.00 video frame)
Interleave, preload duration : 512 ms
Service kind : Complete Main

SCREENSHOT

SCREENSHOT

Click To View Screenshot

Click To View Screenshot

Click To View Screenshot

Torrent location

http://www.1337x.to/torrent/2589844/No-Beast-So-Fierce-2017-HDRip-XviD-AC3-EVO/

Trackers

Refresh Leechers : Updated November 20, 2017

1. http://bigfoot1942.sektori.org:6969/announce

2. http://tracker2.wasabii.com.tw:6969/announce

3. http://tracker.opentrackr.org/announce

4. http://announce.torrentsmd.com:6969/announce

5. http://tracker.trackerfix.com/announce

6. http://tracker.opentrackr.org/announce

7. udp://explodie.org:6969/announce

8. udp://mgtracker.org:6969/announce

9. udp://asnet.pw:2710/announce

10. udp://tracker.mgtracker.org:2710/announce

11. udp://tracker4.piratux.com:6969/announce

12. udp://tracker.trackerfix.com:80/announce

13. udp://tracker.pomf.se:80/announce

14. udp://tracker.x4w.co:6969/announce

15. udp://castradio.net:6969/announce

16. udp://ipv4.tracker.harry.lu:80/announce

17. udp://tracker.mg64.net:6881/announce

18. udp://tracker.sktorrent.net:6969/announce

19. udp://tracker.blackunicorn.xyz:6969/announce

20. udp://tracker.internetwarriors.net:1337/announce

21. udp://public.popcorn-tracker.org:6969/announce

22. udp://glotorrents.pw:6969/announce

23. udp://tracker.vanitycore.co:6969/announce

24. udp://tracker.trackerfix.com:80/announce

25. udp://p4p.arenabg.ch:1337/announce

26. udp://9.rarbg.me:2710/announce

27. udp://tracker.zer0day.to:1337/announce

28. udp://tracker.opentrackr.org:1337/announce

29. udp://tracker.pirateparty.gr:6969/announce

30. udp://9.rarbg.to:2710/announce

31. udp://eddie4.nl:6969/announce

32. udp://tracker.coppersurfer.tk:6969/announce

33. udp://tracker.leechers-paradise.org:6969/announce

34. udp://tracker.zer0day.to:1337/announce

35. udp://public.popcorn-tracker.org:6969/announce

36. udp://tracker.grepler.com:6969/announce

37. udp://ipv4.tracker.harry.lu:80/announce

38. udp://9.rarbg.to:2710/announce

39. udp://9.rarbg.me:2710/announce

40. udp://p4p.arenabg.com:1337/announce

41. udp://p4p.arenabg.ch:1337/announce

42. udp://tracker.opentrackr.org:1337/announce

43. udp://tracker.leechers-paradise.org:6969/announce

44. udp://eddie4.nl:6969/announce

45. udp://shadowshq.yi.org:6969/announce

46. udp://tracker.pirateparty.gr:6969/announce

47. udp://tracker.coppersurfer.tk:6969/announce

Comments

You must log in to add a comment.

Embed Code

Sharing Widget

Related torrents

FILENAME SIZE SEEDS PEERS ADDED UPD
[i] No Beast So Fierce 2016 HDRip XViD AC3-juggs
posted by juggs in Movies - Thriller
1.08 GB 41 34 1 day 9 hours
[i] No Beast So Fierce 2017 HDRip XviD
posted by LifeLongg in Movies - Drama
893.03 MB 22 24 5 days 4 days

Top Movies ( auto generated report )

FILENAME SIZE SEEDS PEERS ADDED UPD
[i] American.Assassin.2017.WEB-DL.x264-FGT [rarbg] 978.65 MB 1500 398 2 days 17 hours
[i] 6 Below Miracle on the Mountain (2017) [720p] [YTS AG] 720.98 MB 2002 664 4 days 1 day
[i] Geostorm.2017.KORSUB.HDRip.x264-STUTTERSHIT[rarbg] 959.15 MB 1670 576 3 days 1 day
[i] Home.Again.2017.WEB-DL.x264-FGT [rarbg] 854.15 MB 1280 761 2 days 1 day
[i] American.Made.2017.WEB-DL.x264-FGT 1011.15 MB 1267 685 2 days 1 day
[i] Geostorm 2017 HC HDRip 650MB 662.87 MB 986 130 4 days 18 hours
[i] Super Dark Times (2017) [720p] [YTS AG] 750.11 MB 721 108 5 days 17 hours
[i] Tulip Fever (2017) [720p] [YTS AG] 771.4 MB 1050 302 6 days 21 hours
[i] Crooked.House.2017.WEB-DL.x264-FGT 1011.15 MB 807 269 2 days 17 hours
[i] Beta Test (2016) [720p] [YTS AG] 640.68 MB 907 204 6 days 21 hours