Kyle Valle | Xolo Maridueña | Chase Austin

In.This.Corner.of.the.World.2016.BDRip.x264-HAiKU

DOWNLOAD TORRENT DOWNLOAD Watch Online

Posted on November 14, 2017 in Movies » Misc , verified torrent

Size: 634 MB , Seeds: 2 , Peers: 1 ( Updated November 20, 2017 - Refresh )

* Download via Magnet Link , * To download files you need a Bittorrent Client , * How to download torrents from Bit Torrent Scene?

Scrape History ( seeds + peers )

Internal Files

In.This.Corner.of.the.World.2016.BDRip.x264-HAiKU
in.this.corner.of.the.world.2016.bdrip.x264-haiku.mkv   630.71 MB
in.this.corner.of.the.world.2016.bdrip.x264-haiku.nfo   893 Byte

Hash Code

c5c69da2869926df585705c7b5813ce17d223a8a

Description

In.This.Corner.of.the.World.2016.BDRip.x264-HAiKU

ImDb: http://www.imdb.com/title/tt4769824

SCREENSHOT

Complete name : in.this.corner.of.the.world.2016.bdrip.x264-haiku.mkv
Format : Matroska
Format version : Version 4 / Version 2
File size : 631 MiB
Duration : 2 h 9 min
Overall bit rate : 680 kb/s
Encoded date : UTC 2017-11-14 14:01:57
Writing application : mkvmerge v8.3.0 ('Over the Horizon') 64bit
Writing library : libebml v1.3.1 + libmatroska v1.4.2

Video
ID : 1
Format : AVC
Format/Info : Advanced Video Codec
Format profile : [email protected]
Format settings, CABAC : Yes
Format settings, ReFrames : 10 frames
Codec ID : V_MPEG4/ISO/AVC
Duration : 2 h 9 min
Bit rate : 412 kb/s
Width : 720 pixels
Height : 388 pixels
Display aspect ratio : 1.85:1
Frame rate mode : Constant
Frame rate : 23.976 (24000/1001) FPS
Color space : YUV
Chroma subsampling : 4:2:0
Bit depth : 8 bits
Scan type : Progressive
Bits/(Pixel*Frame) : 0.062
Stream size : 383 MiB (61%)
Writing library : x264 core 152 r2851 ba24899
Encoding settings : cabac=1 / ref=10 / deblock=1:1:1 / analyse=0x3:0x113 / me=umh / subme=8 / psy=1 / psy_rd=0.40:0.00 / mixed_ref=1 / me_range=16 / chroma_me=1 / trellis=2 / 8x8dct=1 / cqm=0 / deadzone=21,11 / fast_pskip=1 / chroma_qp_offset=-2 / threads=12 / lookahead_threads=2 / sliced_threads=0 / nr=0 / decimate=1 / interlaced=0 / bluray_compat=0 / constrained_intra=0 / bframes=5 / b_pyramid=2 / b_adapt=1 / b_bias=0 / direct=3 / weightb=1 / open_gop=0 / weightp=2 / keyint=240 / keyint_min=24 / scenecut=40 / intra_refresh=0 / rc_lookahead=50 / rc=crf / mbtree=1 / crf=19.0 / qcomp=0.60 / qpmin=0 / qpmax=69 / qpstep=4 / ip_ratio=1.40 / aq=1:0.60
Language : English
Default : Yes
Forced : No
Color range : Limited
Matrix coefficients : BT.709

Audio #1
ID : 2
Format : AAC
Format/Info : Advanced Audio Codec
Format profile : LC
Codec ID : A_AAC
Duration : 2 h 9 min
Bit rate : 132 kb/s
Channel(s) : 2 channels
Channel positions : Front: L R
Sampling rate : 48.0 kHz
Frame rate : 46.875 FPS (1024 spf)
Compression mode : Lossy
Delay relative to video : 9 ms
Stream size : 123 MiB (19%)
Language : Japanese
Default : Yes
Forced : No

Audio #2
ID : 3
Format : AAC
Format/Info : Advanced Audio Codec
Format profile : LC
Codec ID : A_AAC
Duration : 2 h 9 min
Bit rate : 132 kb/s
Channel(s) : 2 channels
Channel positions : Front: L R
Sampling rate : 48.0 kHz
Frame rate : 46.875 FPS (1024 spf)
Compression mode : Lossy
Delay relative to video : 9 ms
Stream size : 122 MiB (19%)
Language : English
Default : No
Forced : No

Text #1
ID : 4
Format : UTF-8
Codec ID : S_TEXT/UTF8
Codec ID/Info : UTF-8 Plain Text
Duration : 2 h 0 min
Bit rate : 54 b/s
Count of elements : 1734
Stream size : 48.6 KiB (0%)
Title : English
Language : English
Default : Yes
Forced : Yes

Text #2
ID : 5
Format : UTF-8
Codec ID : S_TEXT/UTF8
Codec ID/Info : UTF-8 Plain Text
Duration : 1 h 54 min
Bit rate : 1 b/s
Count of elements : 75
Stream size : 1.43 KiB (0%)
Title : English forced
Language : English
Default : No
Forced : No

Text #3
ID : 6
Format : UTF-8
Codec ID : S_TEXT/UTF8
Codec ID/Info : UTF-8 Plain Text
Duration : 2 h 0 min
Bit rate : 62 b/s
Count of elements : 1839
Stream size : 55.1 KiB (0%)
Title : English dubtitles
Language : English
Default : No
Forced : No

Text #4
ID : 7
Format : UTF-8
Codec ID : S_TEXT/UTF8
Codec ID/Info : UTF-8 Plain Text
Duration : 2 h 5 min
Bit rate : 64 b/s
Count of elements : 2124
Stream size : 59.9 KiB (0%)
Title : English dubtitles SDH
Language : English
Default : No
Forced : No

Menu
00:00:00.000 : en:00:00:00.000
00:10:39.722 : en:00:10:39.722
00:22:49.660 : en:00:22:49.660
00:33:21.583 : en:00:33:21.583
00:45:07.914 : en:00:45:07.914
00:58:19.204 : en:00:58:19.204
01:08:35.153 : en:01:08:35.153
01:18:58.776 : en:01:18:58.776
01:28:35.977 : en:01:28:35.977
01:37:32.597 : en:01:37:32.597
01:48:12.695 : en:01:48:12.695
01:59:33.708 : en:01:59:33.708

SCREENSHOT

SCREENSHOT

Click To View Screenshot

Click To View Screenshot

Click To View Screenshot

Torrent location

http://www.1337x.to/torrent/2590325/In-This-Corner-of-the-World-2016-BDRip-x264-HAiKU/

Trackers

Refresh Leechers : Updated November 20, 2017

1. http://bigfoot1942.sektori.org:6969/announce

2. http://tracker2.wasabii.com.tw:6969/announce

3. http://tracker.opentrackr.org/announce

4. http://announce.torrentsmd.com:6969/announce

5. http://tracker.trackerfix.com/announce

6. http://tracker.opentrackr.org/announce

7. udp://explodie.org:6969/announce

8. udp://mgtracker.org:6969/announce

9. udp://asnet.pw:2710/announce

10. udp://tracker.mgtracker.org:2710/announce

11. udp://tracker4.piratux.com:6969/announce

12. udp://tracker.trackerfix.com:80/announce

13. udp://tracker.pomf.se:80/announce

14. udp://tracker.x4w.co:6969/announce

15. udp://castradio.net:6969/announce

16. udp://ipv4.tracker.harry.lu:80/announce

17. udp://tracker.mg64.net:6881/announce

18. udp://tracker.sktorrent.net:6969/announce

19. udp://tracker.blackunicorn.xyz:6969/announce

20. udp://tracker.internetwarriors.net:1337/announce

21. udp://public.popcorn-tracker.org:6969/announce

22. udp://glotorrents.pw:6969/announce

23. udp://tracker.vanitycore.co:6969/announce

24. udp://tracker.trackerfix.com:80/announce

25. udp://p4p.arenabg.ch:1337/announce

26. udp://9.rarbg.me:2710/announce

27. udp://tracker.zer0day.to:1337/announce

28. udp://tracker.opentrackr.org:1337/announce

29. udp://tracker.pirateparty.gr:6969/announce

30. udp://9.rarbg.to:2710/announce

31. udp://eddie4.nl:6969/announce

32. udp://tracker.coppersurfer.tk:6969/announce

33. udp://tracker.leechers-paradise.org:6969/announce

34. udp://tracker.zer0day.to:1337/announce

35. udp://public.popcorn-tracker.org:6969/announce

36. udp://tracker.grepler.com:6969/announce

37. udp://ipv4.tracker.harry.lu:80/announce

38. udp://9.rarbg.to:2710/announce

39. udp://9.rarbg.me:2710/announce

40. udp://p4p.arenabg.com:1337/announce

41. udp://p4p.arenabg.ch:1337/announce

42. udp://tracker.opentrackr.org:1337/announce

43. udp://tracker.leechers-paradise.org:6969/announce

44. udp://eddie4.nl:6969/announce

45. udp://shadowshq.yi.org:6969/announce

46. udp://tracker.pirateparty.gr:6969/announce

47. udp://tracker.coppersurfer.tk:6969/announce

Comments

You must log in to add a comment.

Embed Code

Sharing Widget

Related torrents

FILENAME SIZE SEEDS PEERS ADDED UPD
[i] In This Corner of the World (2016) BluRay 720p 900MB Ganool 900.68 MB 41 5 1 month 2 weeks
[i] In.This.Corner.of.the.World.2016.BDRip.x264-HAiKU 636.73 MB 3 6 1 week 3 days

Top Movies ( auto generated report )

FILENAME SIZE SEEDS PEERS ADDED UPD
[i] American.Assassin.2017.WEB-DL.x264-FGT [rarbg] 978.65 MB 1500 398 2 days 17 hours
[i] 6 Below Miracle on the Mountain (2017) [720p] [YTS AG] 720.98 MB 2002 664 4 days 1 day
[i] Geostorm.2017.KORSUB.HDRip.x264-STUTTERSHIT[rarbg] 959.15 MB 1670 576 3 days 1 day
[i] Home.Again.2017.WEB-DL.x264-FGT [rarbg] 854.15 MB 1280 761 2 days 1 day
[i] American.Made.2017.WEB-DL.x264-FGT 1011.15 MB 1267 685 2 days 1 day
[i] Geostorm 2017 HC HDRip 650MB 662.87 MB 986 130 4 days 19 hours
[i] Super Dark Times (2017) [720p] [YTS AG] 750.11 MB 721 108 5 days 17 hours
[i] Tulip Fever (2017) [720p] [YTS AG] 771.4 MB 1050 302 6 days 21 hours
[i] Crooked.House.2017.WEB-DL.x264-FGT 1011.15 MB 807 269 2 days 17 hours
[i] Beta Test (2016) [720p] [YTS AG] 640.68 MB 907 204 6 days 21 hours