Chapter 16 | Chapter 15.5 | Chapter 15

Have i got a bit more news for you S54E06. revittony

DOWNLOAD TORRENT DOWNLOAD Watch Online

Posted by revittony •226 on November 14, 2017 in Series » Misc , verified torrent

Size: 721.47 MB , Seeds: 1 , Peers: 1 ( Updated November 20, 2017 - Refresh )

* Download via Magnet Link , * To download files you need a Bittorrent Client , * How to download torrents from Bit Torrent Scene?

Scrape History ( seeds + peers )

Internal Files

Have i got a bit more news for you S54E06.mp4
Have i got a bit more news for you S54E06.mp4   721.47 MB

Hash Code

d002fffbb88ba98ee3bbcddc513e259b47c8d99e

Description

Format : MPEG-4
Format profile : Base Media
Codec ID : isom (isom/iso2/avc1/mp41)
File size : 729 MiB
Duration : 42 min 8 s
Overall bit rate mode : Variable
Overall bit rate : 2 420 kb/s
Collection : get_iplayer

Video
ID : 1
Format : AVC
Format/Info : Advanced Video Codec
Format profile : [email protected]
Format settings : CABAC / 2 Ref Frames
Format settings, CABAC : Yes
Format settings, RefFrames : 2 frames
Codec ID : avc1
Codec ID/Info : Advanced Video Coding
Duration : 42 min 8 s
Bit rate mode : Variable
Bit rate : 2 321 kb/s
Maximum bit rate : 3 500 kb/s
Width : 1 280 pixels
Height : 720 pixels
Display aspect ratio : 16:9
Frame rate mode : Constant
Frame rate : 25.000 FPS
Color space : YUV
Chroma subsampling : 4:2:0
Bit depth : 8 bits
Scan type : Progressive
Bits/(Pixel*Frame) : 0.101
Stream size : 699 MiB (96%)

Audio
ID : 2
Format : AAC
Format/Info : Advanced Audio Codec
Format profile : LC
Codec ID : mp4a-40-2
Duration : 42 min 8 s
Bit rate mode : Variable
Bit rate : 93.4 kb/s
Maximum bit rate : 94.9 kb/s
Channel(s) : 2 channels
Channel positions : Front: L R
Sampling rate : 48.0 kHz
Frame rate : 46.875 FPS (1024 SPF)
Compression mode : Lossy
Stream size : 28.1 MiB (4%)
Default : Yes
Alternate group : 1

Trackers

Refresh Leechers : Updated November 20, 2017

1. udp://tracker.openbittorrent.com:80/announce

2. udp://tracker.publicbt.com:80/announce

3. udp://tracker.coppersurfer.tk:6969/announce

4. udp://tracker.zer0day.to:1337/announce

5. udp://tracker.leechers-paradise.org:6969

Comments

You must log in to add a comment.

Embed Code

Sharing Widget

Related torrents

FILENAME SIZE SEEDS PEERS ADDED UPD
[i] Houston.We.Have.A.Problem!HBO.2016.720p.700.MB
posted by sa1sa in Movies - Documentary
705.61 MB 65 4 1 year 2 months
[i]
[i]
Electrical Engineering 101 - You Should Have Learned in School...but Probably Didnt - 3rd Edition (2011).pdf Gooner
6.89 MB 50 0 1 year 3 months
[i] The Complete Photo Guide to Great Sex Step-by-step Pictures of All You Need to Know to Have the Most Amazing Sex Ever 46.83 MB 47 3 1 month 1 week
[i] [AssParade - BangBros] Jada Stevens - You Have my Attention (ap16033 - 10.07.2017)
posted by samwarez in Porn - Movies
300.79 MB 44 6 4 months 1 month
[i] The Complete Photo Guide to Great Sex 300 color photos and illustrations Step-by-step Pictures of All You Need to Know to Have the Most Amazing Sex Ever 46.83 MB 41 3 3 months 2 weeks
[i] Best Penis Enlargement Exercises Simple Tricks Penis Enlargement Exercises You Have to Try! ( 2017) 844.8 KB 29 0 3 weeks 1 week
[i] Blondes Have More Fun DiSC2 XXX DVDRip x264
posted by sanyika in Porn - Movies
1.51 GB 21 8 1 year 5 months
[i] [ShareMyBF - Mofos] Jade Jantzen- Priya Price (Bootilicious BFFs Have Threesome - 30.04.2017)
posted by samwarez in Porn - Movies
321.87 MB 20 2 5 months 2 days
[i] The Haves and the Have Nots S04E11 HDTV x264-RBB[state] 248.79 MB 20 0 1 year 2 months
[i] The.Haves.and.the.Have.Nots.S04E07.Pieces.of.the.Puzzle.REAL.HDTV.x264-CRiMSON[eztv] 219.91 MB 20 1 9 months 3 months

Top Series ( auto generated report )

FILENAME SIZE SEEDS PEERS ADDED UPD
[i] The.Flash.2014.S04E07.HDTV.x264-KILLERS[eztv].mkv 276.66 MB 6239 1761 1 day 10 hours
[i] Lucifer.S03E08.HDTV.x264-SVA[eztv].mkv 298.79 MB 5423 1273 2 days 1 day
[i] Supergirl.S03E07.HDTV.x264-SVA[eztv].mkv 235.41 MB 4381 1002 2 days 1 day
[i] DCs.Legends.of.Tomorrow.S03E07.HDTV.x264-KILLERS[eztv].mkv 400.32 MB 3483 790 1 day 9 hours
[i] The.Good.Doctor.S01E08.HDTV.x264-KILLERS[eztv].mkv 247.91 MB 3470 587 2 days 1 day
[i] Greys.Anatomy.S14E08.HDTV.x264-KILLERS[eztv].mkv 304.41 MB 3274 208 6 days 12 hours
[i] Shameless.US.S08E03.WEB.h264-CONVOY[eztv].mkv 818.65 MB 2117 464 3 days 2 days
[i] The.Walking.Dead.S08E05.REPACK.HDTV.x264-SVA [eztv] 323.29 MB 2099 471 3 days 2 days
[i] Gotham.S04E09.HDTV.x264-SVA[eztv].mkv 279.29 MB 1924 189 6 days 10 hours
[i] This.Is.Us.S02E09.HDTV.x264-SVA[eztv].mkv 281.66 MB 1775 357 1 day 9 hours