İngiltere Premier Lig | Thailand | Иван Реон
Your IP Address is . Location is Your ISP and Government can track your torrent activity! Hide your IP with a VPN!

Haseena Parkar 2017 HD Dual Audio English Hindi GOPISAHI

DOWNLOAD TORRENT DOWNLOAD Watch Online

Posted by gopisahi •563 on January 12, 2018 in Movies » Drama , verified torrent

Size: 496.36 MB , Seeds: 62 , Peers: 24 ( Updated January 13, 2018 - Refresh )

* Download via Magnet Link , * To download files you need a Bittorrent Client , * How to download torrents from Bit Torrent Scene?

Scrape History ( seeds + peers )

Internal Files

Haseena Parkar 2017 HD Dual Audio English Hindi GOPISAHI.mkv
Haseena Parkar 2017 HD Dual Audio English Hindi GOPISAHI.mkv   496.36 MB

Hash Code

66a6961736758cfd49e82b7ad45c4265e54292b7

Description

SCREENSHOT
Format : Matroska
Format version : Version 4 / Version 2
File size : 496 MiB
Duration : 1 h 57 min
Overall bit rate : 590 kb/s

Video
Format : AVC
Codec ID : V_MPEG4/ISO/AVC
Duration : 1 h 57 min
Bit rate : 500 kb/s
Width : 1 280 pixels
Height : 544 pixels
Display aspect ratio : 2.35:1
Frame rate mode : Constant
Frame rate : 23.976 (24000/1001) FPS
Stream size : 420 MiB (85%)
Writing library : x264 core 148 r2708 86b7198

Audio
Format : AAC
Duration : 1 h 57 min
Bit rate : 88.1 kb/s
Channel(s) : 6 channels
Channel positions : Front: L C R, Side: L R, LFE
Sampling rate : 44.1 kHz
Frame rate : 43.066 FPS (1024 SPF)
Stream size : 74.1 MiB (15%)
SCREENSHOT
SCREENSHOT
SCREENSHOT

Trackers

Refresh Leechers : Updated January 13, 2018

1. http://ipv4.tracker.harry.lu/announce

2. http://ipv4.tracker.harry.lu:80/announce

3. http://163.172.180.68:80/announce

4. http://t.nyaatracker.com/announce

5. http://tracker.devil-torrents.pl:80/announce

6. http://tracker.devil-torrents.pl/announce

7. http://open.kickasstracker.com/announce

8. http://163.172.180.68/announce

9. http://t.nyaatracker.com:80/announce

10. http://retracker.mgts.by:80/announce

11. http://45.33.11.224/announce

12. http://tracker.torrentyorg.pl:80/announce

13. http://pt.lax.mx:80/announce

14. udp://tracker.coppersurfer.tk:6969/announce

15. udp://tracker.pirateparty.gr:6969/announce

Comments

You must log in to add a comment.

Embed Code

Sharing Widget

Related torrents

FILENAME SIZE SEEDS PEERS ADDED UPD
[i] Haseena Parkar 2017 720p WEB-HD x264 AAC
posted by moviefreak in Movies - Thriller
859.82 MB 230 232 3 days 2 days
[i] Haseena Parkar 2017 1080p WEB-HD x264
posted by moviefreak in Movies - Thriller
1.49 GB 86 87 3 days 2 days
[i] Haseena.Parkar.2017.1080p.V2.WebDL.Hindi.2CH.AAC.Ov3rload.torrent 1.64 GB 55 82 3 days 2 days
[i] Haseena.Parkar.2017.720p.V2.WebDL.Hindi.2CH.AAC.Ov3rload.torrent 841.3 MB 21 30 4 days 3 days
[i] Haseena Parkar 2017 Hindi 720p WEB-DL 550Mb HEVC x265-Team W4U.torrent 560.3 MB 18 5 3 days 2 days

Top Movies ( auto generated report )

FILENAME SIZE SEEDS PEERS ADDED UPD
[i] The.Shape.of.Water.2017.DVDScr.XVID.AC3.HQ.Hive-CM8[EtMovies] 1.74 GB 8388 5370 1 week 1 day
[i] Blade Runner 2049 (2017) [1080p] [YTS AG] 2.51 GB 7969 3663 1 week 1 day
[i] Blade Runner 2049 (2017) [720p] [YTS AG] 1.2 GB 6613 3016 1 week 5 days
[i] Justice League 2017 1080p KORSUB HDRip x264 AAC2 0-STUTTERSHIT 3.88 GB 4053 995 3 weeks 1 week
[i] Three.Billboards.Outside.Ebbing,Missouri.2017.DVDScr.XVID.AC3.HQ.Hive-CM8[EtMovies] 1.53 GB 3750 1241 2 weeks 6 days
[i] It (2017) [720p] [YTS AG] 997.65 MB 3302 940 3 weeks 2 days
[i] Happy Death Day (2017) [720p] [YTS AG] 708.01 MB 2553 807 1 week 13 hours
[i] Happy Death Day (2017) [1080p] [YTS AG] 1.46 GB 2456 793 1 week 3 days
[i] Jigsaw 2017 1080p Web DL x264 AC3 TiTAN[EtHD] 3.21 GB 2449 1124 1 week 1 day
[i] It (2017) [1080p] [YTS AG] 2.06 GB 2422 419 3 weeks 2 days