Code Black | The Swindlers (2017) | Samurai Pizza Cats
Your IP Address is . Location is Your ISP and Government can track your torrent activity! Hide your IP with a VPN!

Haseena Parkar 2017 1080p WEB-HD x264

DOWNLOAD TORRENT DOWNLOAD Watch Online

Posted by moviefreak •674 on January 12, 2018 in Movies » Thriller , verified torrent

Size: 1.49 GB , Seeds: 86 , Peers: 87 ( Updated January 13, 2018 - Refresh )

* Download via Magnet Link , * To download files you need a Bittorrent Client , * How to download torrents from Bit Torrent Scene?

Scrape History ( seeds + peers )

Internal Files

Haseena Parkar 2017 1080p WEB-HD x264
Haseena Parkar 2017 1080p WEB-HD x264.mkv   1.49 GB

Hash Code

a457f2e445d08394f067128eaf48ee589e28828a

Description


SCREENSHOT


General
Format : Matroska
Format version : Version 4 / Version 2
File size : 1.49 GiB
Duration : 1 h 57 min
Overall bit rate : 1 815 kb/s

Video
ID : 1
Format : AVC
Format/Info : Advanced Video Codec
Format profile : [email protected]
Format settings : CABAC / 4 Ref Frames
Format settings, CABAC : Yes
Format settings, ReFrames : 4 frames
Codec ID : V_MPEG4/ISO/AVC
Duration : 1 h 57 min
Bit rate : 1 700 kb/s
Width : 1 920 pixels
Height : 816 pixels
Display aspect ratio : 2.35:1
Frame rate mode : Constant
Frame rate : 24.926 FPS
Color space : YUV
Chroma subsampling : 4:2:0
Bit depth : 8 bits
Scan type : Progressive
Bits/(Pixel*Frame) : 0.044
Stream size : 1.38 GiB (93%)
Writing library : x264 core 148 r2708 86b7198
Default : Yes
Forced : No

Audio
ID : 2
Format : AAC
Format/Info : Advanced Audio Codec
Format profile : LC
Codec ID : A_AAC-2
Duration : 1 h 57 min
Bit rate : 128 kb/s
Channel(s) : 2 channels
Channel positions : Front: L R
Sampling rate : 44.1 kHz
Frame rate : 43.066 FPS (1024 SPF)
Compression mode : Lossy
Stream size : 107 MiB (7%)
Language : Hindi
Default : Yes
Forced : No




http://pichub.site/image/c3KZ
http://pichub.site/image/csSD
http://pichub.site/image/cPUT
http://pichub.site/image/c5b0
http://pichub.site/image/cpiy
http://pichub.site/image/coJp

Trackers

Refresh Leechers : Updated January 13, 2018

1. http://ipv4.tracker.harry.lu/announce

2. http://ipv4.tracker.harry.lu:80/announce

3. http://open.kickasstracker.com/announce

4. http://open.kickasstracker.com:443/announce

5. udp://tracker.coppersurfer.tk:6969/announce

6. udp://tracker.coppersurfer.tk:80/announce

7. udp://tracker.leechers-paradise.org:6969/announce

8. udp://tracker.openbittorrent.com:80/announce

9. udp://tracker.zer0day.to:1337/announce

10. http://82.209.230.66/announce

11. http://163.172.180.68/announce

12. udp://eddie4.nl:6969/announce

13. udp://explodie.org:6969/announce

14. udp://9.rarbg.to:2720/announce

15. udp://tracker.coppersurfer.tk:6969

Comments

You must log in to add a comment.

Embed Code

Sharing Widget

Related torrents

FILENAME SIZE SEEDS PEERS ADDED UPD
[i] Haseena.Parkar.2017.1080p.V2.WebDL.Hindi.2CH.AAC.Ov3rload.torrent 1.64 GB 55 82 4 days 3 days

Top Movies ( auto generated report )

FILENAME SIZE SEEDS PEERS ADDED UPD
[i] The.Shape.of.Water.2017.DVDScr.XVID.AC3.HQ.Hive-CM8[EtMovies] 1.74 GB 5629 2558 1 week 18 hours
[i] Blade Runner 2049 (2017) [1080p] [YTS AG] 2.51 GB 7969 3663 1 week 2 days
[i] Blade Runner 2049 (2017) [720p] [YTS AG] 1.2 GB 5639 1748 1 week 16 hours
[i] Justice League 2017 1080p KORSUB HDRip x264 AAC2 0-STUTTERSHIT 3.88 GB 4053 995 3 weeks 1 week
[i] Three.Billboards.Outside.Ebbing,Missouri.2017.DVDScr.XVID.AC3.HQ.Hive-CM8[EtMovies] 1.53 GB 3750 1241 3 weeks 1 week
[i] It (2017) [720p] [YTS AG] 997.65 MB 3302 940 3 weeks 2 days
[i] Happy Death Day (2017) [720p] [YTS AG] 708.01 MB 2553 807 1 week 1 day
[i] Happy Death Day (2017) [1080p] [YTS AG] 1.46 GB 2456 793 1 week 3 days
[i] Jigsaw 2017 1080p Web DL x264 AC3 TiTAN[EtHD] 3.21 GB 2449 1124 1 week 1 day
[i] It (2017) [1080p] [YTS AG] 2.06 GB 2422 419 3 weeks 3 days