Brisbane International 2018 Best Match Of Day 8 | Sieg der Liebe | Đảo Hải Tặc One Piece Lượt xem: 41,499,746
Your IP Address is . Location is Your ISP and Government can track your torrent activity! Hide your IP with a VPN!

Goodbye Christopher Robin (2017) 1080p Bluray Dual Audio [Hindi - English] DD5.1 - Msubs ~ Ranvijay

DOWNLOAD TORRENT DOWNLOAD Watch Online

Posted on January 13, 2018 in Movies » Misc

Size: 2.36 GB , Seeds: 14 , Peers: 54 ( Updated January 14, 2018 - Refresh )

* Download via Magnet Link , * To download files you need a Bittorrent Client , * How to download torrents from Bit Torrent Scene?

Scrape History ( seeds + peers )

Internal Files

Goodbye Christopher Robin (2017) 1080p Bluray Dual Audio [Hindi - English] DD5.1 - Msubs ~ Ranvijay.mkv
Goodbye Christopher Robin (2017) 1080p Bluray Dual Audio [Hindi - English] DD5.1 - Msubs ~ Ranvijay.mkv   2.35 GB

Hash Code

4826e7c4287a4371f2de6fe7c154f8951653f396

Description

SCREENSHOT
SCREENSHOT

Goodbye Christopher Robin (2017) 1080p Bluray Dual Audio [Hindi - English] DD5.1 - Msubs ~ Ranvijay

Thanks To Mr Rajput For Hindi Audio

Format                                   : Matroska

Format version                           : Version 4 / Version 2

File size                                : 2.35 GiB

Duration                                 : 1 h 47 min

Overall bit rate                         : 3 150 kb/s

Movie name                               : Goodbye Christopher Robin (2017) 1080p Bluray Dual Audio [Hindi - English] DD5.1 - Msubs ~ Ranvijay


Video

Duration                                 : 1 h 47 min

Bit rate                                 : 2 500 kb/s

Width                                    : 1 920 pixels

Height                                   : 1 040 pixels

Display aspect ratio                     : 1.85:1

Frame rate mode                          : Constant

Frame rate                               : 23.976 (24000/1001) FPS

Stream size                              : 1.87 GiB (79%)

Title                                    : ~Ranvijay~

Default                                  : Yes

Forced                                   : No


Audio #1

ID                                       : 2

Format                                   : AC-3

Format/Info                              : Audio Coding 3

Codec ID                                 : A_AC3

Duration                                 : 1 h 47 min

Bit rate mode                            : Constant

Bit rate                                 : 448 kb/s

Channel(s)                               : 6 channels

Channel positions                        : Front: L C R, Side: L R, LFE

Sampling rate                            : 48.0 kHz

Frame rate                               : 31.250 FPS (1536 SPF)

Bit depth                                : 16 bits

Compression mode                         : Lossy

Stream size                              : 343 MiB (14%)

Title                                    : ~Ranvijay~

Language                                 : Hindi

Service kind                             : Complete Main

Default                                  : Yes

Forced                                   : No


Audio #2

ID                                       : 3

Format                                   : AAC

Format/Info                              : Advanced Audio Codec

Format profile                           : HE-AAC / LC

Format settings                          : Explicit

Codec ID                                 : A_AAC-2

Duration                                 : 1 h 47 min

Bit rate                                 : 192 kb/s

Channel(s)                               : 6 channels

Channel positions                        : Front: L C R, Side: L R, LFE

Sampling rate                            : 48.0 kHz / 24.0 kHz

Frame rate                               : 23.438 FPS (1024 SPF)

Compression mode                         : Lossy

Delay relative to video                  : 31 ms

Stream size                              : 147 MiB (6%)

Title                                    : ~Ranvijay~

Language                                 : English

Default                                  : No

Forced                                   : No


Text #1

ID                                       : 4

Format                                   : UTF-8

Codec ID                                 : S_TEXT/UTF8

Codec ID/Info                            : UTF-8 Plain Text

Duration                                 : 1 h 40 min

Bit rate                                 : 63 b/s

Count of elements                        : 1670

Stream size                              : 46.9 KiB (0%)

Title                                    : ~Ranvijay~

Language                                 : English

Default                                  : No

Forced                                   : No


Text #2

ID                                       : 5

Format                                   : PGS

Muxing mode                              : zlib

Codec ID                                 : S_HDMV/PGS

Codec ID/Info                            : Picture based subtitle format used on BDs/HD-DVDs

Duration                                 : 1 h 45 min

Bit rate                                 : 31.5 kb/s

Count of elements                        : 2852

Stream size                              : 23.8 MiB (1%)

Title                                    : ~Ranvijay~

Language                                 : Hindi

Default                                  : Yes

Forced                                   : No


Menu

00:00:00.000                             : :00:00:00.000

00:04:03.952                             : :00:04:03.952

00:07:01.171                             : :00:07:01.171

00:10:32.632                             : :00:10:32.632

00:13:40.528                             : :00:13:40.528

00:16:48.591                             : :00:16:48.591

00:20:43.409                             : :00:20:43.409

00:25:44.793                             : :00:25:44.793

00:30:36.752                             : :00:30:36.752

00:35:25.582                             : :00:35:25.582

00:40:50.740                             : :00:40:50.740

00:48:22.108                             : :00:48:22.108

00:52:32.733                             : :00:52:32.733

00:57:53.595                             : :00:57:53.595

01:03:35.812                             : :01:03:35.812

01:07:38.513                             : :01:07:38.513

01:12:43.860                             : :01:12:43.859

01:18:55.731                             : :01:18:55.731

01:21:45.609                             : :01:21:45.609

01:25:16.653                             : :01:25:16.653

01:29:10.428                             : :01:29:10.428

01:32:27.917                             : :01:32:27.917

01:35:55.917                             : :01:35:55.917

01:41:03.266                             : :01:41:03.266

SCREENSHOT
SCREENSHOT
SCREENSHOT
SCREENSHOT
SCREENSHOT
SCREENSHOT
SCREENSHOT
SCREENSHOT
SCREENSHOT
SCREENSHOT
SCREENSHOT
SCREENSHOT

Torrent location

http://www.1337x.to/torrent/2728384/Goodbye-Christopher-Robin-2017-1080p-Bluray-Dual-Audio-Hindi-English-DD5-1-Msubs-Ranvijay/

Trackers

Refresh Leechers : Updated January 14, 2018

1. http://bigfoot1942.sektori.org:6969/announce

2. http://tracker2.wasabii.com.tw:6969/announce

3. http://tracker.opentrackr.org/announce

4. http://announce.torrentsmd.com:6969/announce

5. http://tracker.trackerfix.com/announce

6. http://tracker.opentrackr.org/announce

7. udp://explodie.org:6969/announce

8. udp://mgtracker.org:6969/announce

9. udp://asnet.pw:2710/announce

10. udp://tracker.mgtracker.org:2710/announce

11. udp://tracker4.piratux.com:6969/announce

12. udp://tracker.trackerfix.com:80/announce

13. udp://tracker.pomf.se:80/announce

14. udp://tracker.x4w.co:6969/announce

15. udp://castradio.net:6969/announce

16. udp://ipv4.tracker.harry.lu:80/announce

17. udp://tracker.mg64.net:6881/announce

18. udp://tracker.sktorrent.net:6969/announce

19. udp://tracker.blackunicorn.xyz:6969/announce

20. udp://tracker.internetwarriors.net:1337/announce

21. udp://public.popcorn-tracker.org:6969/announce

22. udp://glotorrents.pw:6969/announce

23. udp://tracker.vanitycore.co:6969/announce

24. udp://tracker.trackerfix.com:80/announce

25. udp://p4p.arenabg.ch:1337/announce

26. udp://9.rarbg.me:2710/announce

27. udp://tracker.zer0day.to:1337/announce

28. udp://tracker.opentrackr.org:1337/announce

29. udp://tracker.pirateparty.gr:6969/announce

30. udp://9.rarbg.to:2710/announce

31. udp://eddie4.nl:6969/announce

32. udp://tracker.coppersurfer.tk:6969/announce

33. udp://tracker.leechers-paradise.org:6969/announce

34. http://glotorrents.pw/announce

35. UDP://TRACKER.LEECHERS-PARADISE.ORG:6969/announce

36. UDP://TRACKER.COPPERSURFER.TK:6969/announce

37. UDP://TRACKER.OPENTRACKR.ORG:1337/announce

38. UDP://TRACKER.ZER0DAY.TO:1337/announce

39. UDP://EDDIE4.NL:6969/announce

40. udp://tracker.leechers-paradise.org:6969/announce

41. udp://tracker.coppersurfer.tk:6969/announce

42. udp://eddie4.nl:6969/announce

43. udp://9.rarbg.to:2710/announce

44. udp://tracker.pirateparty.gr:6969/announce

45. udp://tracker.opentrackr.org:1337/announce

46. udp://tracker.zer0day.to:1337/announce

47. udp://9.rarbg.me:2740/announce

48. udp://p4p.arenabg.ch:1337/announce

49. udp://tracker.vanitycore.co:6969/announce

50. udp://public.popcorn-tracker.org:6969/announce

51. udp://tracker.internetwarriors.net:1337/announce

52. udp://tracker.blackunicorn.xyz:6969/announce

53. udp://tracker.sktorrent.net:6969/announce

54. udp://tracker.mg64.net:6881/announce

55. udp://ipv4.tracker.harry.lu:80/announce

56. udp://castradio.net:6969/announce

57. udp://tracker.x4w.co:6969/announce

58. udp://tracker.pomf.se:80/announce

59. udp://tracker4.piratux.com:6969/announce

60. udp://tracker.mgtracker.org:2710/announce

61. udp://asnet.pw:2710/announce

62. udp://mgtracker.org:6969/announce

63. udp://explodie.org:6969/announce

64. udp://tracker.trackerfix.com:80/announce

65. http://announce.torrentsmd.com:6969/announce

66. udp://tracker.opentrackr.org:80/announce

67. http://tracker2.wasabii.com.tw:6969/announce

68. http://bigfoot1942.sektori.org:6969/announce

Comments

You must log in to add a comment.

Embed Code

Sharing Widget

Related torrents

FILENAME SIZE SEEDS PEERS ADDED UPD
[i] Goodbye Christopher Robin (2017) [1080p] [YTS AG] 1.63 GB 1018 416 2 days 1 day
[i] Goodbye Christopher Robin 2017 LIMITED 1080p BluRay 6CH AAC x264 - EiE 1.82 GB 36 12 1 day 16 hours
[i] Goodbye Christopher Robin 2017 1080p BluRay AC3 5 1 x264 ESub
posted by moviefreak in Movies - Drama
1.65 GB 16 7 3 days 2 days
[i] Goodbye.Christopher.Robin.2017.LIMITED.1080p.BluRay.x264-DRONES[EtHD] 7.75 GB 15 12 4 days 3 days
[i] Goodbye Christopher Robin.2017.1080p.WEB-DL.H264.AC3-EVO[EtHD] 4.14 GB 13 5 1 week 6 days
[i] Goodbye.Christopher.Robin.2017.1080p.WEB-DL.Dual.YG
posted by yerisan710 in Movies - Drama
4.41 GB 6 6 1 week 3 days

Top Movies ( auto generated report )

FILENAME SIZE SEEDS PEERS ADDED UPD
[i] The.Shape.of.Water.2017.DVDScr.XVID.AC3.HQ.Hive-CM8[EtMovies] 1.74 GB 5629 2558 1 week 18 hours
[i] Blade Runner 2049 (2017) [1080p] [YTS AG] 2.51 GB 7969 3663 1 week 2 days
[i] Blade Runner 2049 (2017) [720p] [YTS AG] 1.2 GB 5639 1748 1 week 16 hours
[i] Justice League 2017 1080p KORSUB HDRip x264 AAC2 0-STUTTERSHIT 3.88 GB 4053 995 3 weeks 1 week
[i] Three.Billboards.Outside.Ebbing,Missouri.2017.DVDScr.XVID.AC3.HQ.Hive-CM8[EtMovies] 1.53 GB 3750 1241 3 weeks 1 week
[i] It (2017) [720p] [YTS AG] 997.65 MB 3302 940 3 weeks 2 days
[i] Happy Death Day (2017) [720p] [YTS AG] 708.01 MB 2553 807 1 week 1 day
[i] Happy Death Day (2017) [1080p] [YTS AG] 1.46 GB 2456 793 1 week 3 days
[i] Jigsaw 2017 1080p Web DL x264 AC3 TiTAN[EtHD] 3.21 GB 2449 1124 1 week 1 day
[i] It (2017) [1080p] [YTS AG] 2.06 GB 2422 419 3 weeks 3 days