Les Pépites FERNCH WEBRIP 2017 | Teen Mom S07E07 WEB x264-TBS[ettv] | Young Sheldon S01E06 - A Patch, a Modem, and a Zantac®
Your IP Address is . Location is Your ISP and Government can track your torrent activity! Hide your IP with a VPN!

Darkest Hour 2017 DVDSCR x264 AC3 LLG

DOWNLOAD TORRENT DOWNLOAD Watch Online

Posted by LifeLongg •246 on January 12, 2018 in Movies » Drama , verified torrent

Size: 804.64 MB , Seeds: 83 , Peers: 38 ( Updated January 13, 2018 - Refresh )

* Download via Magnet Link , * To download files you need a Bittorrent Client , * How to download torrents from Bit Torrent Scene?

Scrape History ( seeds + peers )

Internal Files

Darkest.Hour.2017.DVDSCR.x264.AC3.LLG
Sample.ts   4.47 MB
Darkest.Hour.2017.DVDSCR.x264.AC3.LLG.mp4   800.17 MB

Hash Code

bf99e12ec31d96c0e94fb6091a335fc38734d488

Description

******************************Thumbnail:**********************

SCREENSHOT

******************************Screenshots:********************

Screenshot 1

Screenshot 2

Screenshot 3

Screenshot 4

Screenshot 5

Screenshot 6

Screenshot 7

Screenshot 8

Screenshot 9

Screenshot 0

**************************************************************

Complete name : Darkest.Hour.2017.DVDSCR.x264.AC3.LLG.mp4
Format : MPEG-4
Format profile : Base Media
Codec ID : isom (isom/iso2/avc1/mp41)
File size : 800 MiB
Duration : 2 h 4 min
Overall bit rate : 895 kb/s
Writing application : Lavf57.56.101

Video
ID : 1
Format : AVC
Format/Info : Advanced Video Codec
Format profile : [email protected]
Format settings : CABAC / 4 Ref Frames
Format settings, CABAC : Yes
Format settings, RefFrames : 4 frames
Codec ID : avc1
Codec ID/Info : Advanced Video Coding
Duration : 2 h 4 min
Bit rate : 768 kb/s
Width : 720 pixels
Height : 384 pixels
Display aspect ratio : 1.85:1
Frame rate mode : Constant
Frame rate : 23.976 (23976/1000) FPS
Color space : YUV
Chroma subsampling : 4:2:0
Bit depth : 8 bits
Scan type : Progressive
Bits/(Pixel*Frame) : 0.116
Stream size : 681 MiB (85%)


Audio
ID : 2
Format : AC-3
Format/Info : Audio Coding 3
Codec ID : ac-3
Duration : 2 h 4 min
Bit rate mode : Constant
Bit rate : 128 kb/s
Channel(s) : 2 channels
Channel positions : Front: L R
Sampling rate : 48.0 kHz
Frame rate : 31.250 FPS (1536 SPF)
Bit depth : 16 bits
Compression mode : Lossy
Stream size : 114 MiB (14%)
Language : English
Service kind : Complete Main
Default : Yes
Alternate group : 1

Trackers

Refresh Leechers : Updated January 13, 2018

1. udp://tracker.openbittorrent.com:80/announce

2. udp://tracker.opentrackr.org:1337/announce

Comments

You must log in to add a comment.

Embed Code

Sharing Widget

Related torrents

FILENAME SIZE SEEDS PEERS ADDED UPD
[i]
[i]
Darkest.Hour.2017.DVDScr.XVID.AC3.HQ.Hive-CM8
1.92 GB 2188 1569 4 days 3 days
[i] Darkest Hour (2017) DVDSCR 800MB - MkvCage 802.3 MB 675 227 4 days 3 days
[i] Darkest.Hour.2017.DVDScr.XVID.AC3.HQ.Hive-CM8[EtMovies] 1.93 GB 524 460 3 days 2 days
[i]
[i]
Darkest Hour 2017 DvDScr 700 MB - iExTV
Movies - Misc , Quality: Audio 10/10 - Video 10/10
703.3 MB 72 36 3 days 2 days

Top Movies ( auto generated report )

FILENAME SIZE SEEDS PEERS ADDED UPD
[i] The.Shape.of.Water.2017.DVDScr.XVID.AC3.HQ.Hive-CM8[EtMovies] 1.74 GB 8388 5370 1 week 1 day
[i] Blade Runner 2049 (2017) [1080p] [YTS AG] 2.51 GB 7969 3663 1 week 1 day
[i] Blade Runner 2049 (2017) [720p] [YTS AG] 1.2 GB 6613 3016 1 week 5 days
[i] Justice League 2017 1080p KORSUB HDRip x264 AAC2 0-STUTTERSHIT 3.88 GB 4053 995 3 weeks 1 week
[i] Three.Billboards.Outside.Ebbing,Missouri.2017.DVDScr.XVID.AC3.HQ.Hive-CM8[EtMovies] 1.53 GB 3750 1241 2 weeks 6 days
[i] It (2017) [720p] [YTS AG] 997.65 MB 3302 940 3 weeks 2 days
[i] Happy Death Day (2017) [720p] [YTS AG] 708.01 MB 2553 807 1 week 13 hours
[i] Happy Death Day (2017) [1080p] [YTS AG] 1.46 GB 2456 793 1 week 3 days
[i] Jigsaw 2017 1080p Web DL x264 AC3 TiTAN[EtHD] 3.21 GB 2449 1124 1 week 1 day
[i] It (2017) [1080p] [YTS AG] 2.06 GB 2422 419 3 weeks 2 days