Kevin Hart | John Leguizamo | Bruce McGill

Dagadi Chaawl 2015 Hindi 720p Untouched WEB-HD x264

DOWNLOAD TORRENT DOWNLOAD Watch Online

Posted by moviefreak •470 on November 14, 2017 in Movies » Action , verified torrent

Size: 1.3 GB , Seeds: 40 , Peers: 14 ( Updated November 20, 2017 - Refresh )

* Download via Magnet Link , * To download files you need a Bittorrent Client , * How to download torrents from Bit Torrent Scene?

Scrape History ( seeds + peers )

Internal Files

Dagadi Chaawl 2015 Hindi 720p Untouched WEB-HD x264
Dagadi Chaawl 2015 Hindi 720p Untouched WEB-HD x264.mkv   1.3 GB

Hash Code

39c59c22fd6b85aa0f0a286f9bc343609d995f58

Description


SCREENSHOT

General
Format : Matroska
Format version : Version 4 / Version 2
File size : 1.30 GiB
Duration : 1 h 54 min
Overall bit rate : 1 619 kb/s

Video
ID : 1
Format : AVC
Format/Info : Advanced Video Codec
Format profile : [email protected]
Format settings : CABAC / 4 Ref Frames
Format settings, CABAC : Yes
Format settings, RefFrames : 4 frames
Codec ID : V_MPEG4/ISO/AVC
Duration : 1 h 54 min
Bit rate : 1 500 kb/s
Width : 1 280 pixels
Height : 528 pixels
Display aspect ratio : 2.40:1
Frame rate mode : Constant
Frame rate : 25.000 FPS
Color space : YUV
Chroma subsampling : 4:2:0
Bit depth : 8 bits
Scan type : Progressive
Bits/(Pixel*Frame) : 0.089
Stream size : 1.19 GiB (92%)
Writing library : x264 core 148 r2643 5c65704
Default : Yes
Forced : No

Audio
ID : 2
Format : AAC
Format/Info : Advanced Audio Codec
Format profile : LC
Codec ID : A_AAC-2
Duration : 1 h 54 min
Bit rate : 128 kb/s
Channel(s) : 2 channels
Channel positions : Front: L R
Sampling rate : 44.1 kHz
Frame rate : 43.066 FPS (1024 SPF)
Compression mode : Lossy
Stream size : 105 MiB (8%)
Default : Yes
Forced : No





SCREENSHOT
SCREENSHOT
SCREENSHOT
SCREENSHOT
SCREENSHOT
SCREENSHOT
SCREENSHOT

Trackers

Refresh Leechers : Updated November 20, 2017

1. http://ipv4.tracker.harry.lu/announce

2. http://ipv4.tracker.harry.lu:80/announce

3. udp://tracker.pirateparty.gr:6969/announce

4. udp://p4p.arenabg.com:1337/announce

5. udp://9.rarbg.me:2770/announce

6. udp://9.rarbg.com:2740/announce

7. udp://9.rarbg.to:2750/announce

8. http://tracker.devil-torrents.pl:80/announce

9. http://tracker.devil-torrents.pl/announce

10. http://open.kickasstracker.com/announce

11. http://open.kickasstracker.com:443/announce

12. udp://tracker.coppersurfer.tk:6969/announce

13. udp://tracker.leechers-paradise.org:6969/announce

14. udp://tracker.zer0day.to:1337/announce

15. http://tracker.devil-torrents.pl/announce

Comments

You must log in to add a comment.

Embed Code

Sharing Widget

Top Movies ( auto generated report )

FILENAME SIZE SEEDS PEERS ADDED UPD
[i] American.Assassin.2017.WEB-DL.x264-FGT [rarbg] 978.65 MB 1500 398 2 days 17 hours
[i] 6 Below Miracle on the Mountain (2017) [720p] [YTS AG] 720.98 MB 2002 664 4 days 1 day
[i] Geostorm.2017.KORSUB.HDRip.x264-STUTTERSHIT[rarbg] 959.15 MB 1670 576 3 days 1 day
[i] Home.Again.2017.WEB-DL.x264-FGT [rarbg] 854.15 MB 1280 761 2 days 1 day
[i] American.Made.2017.WEB-DL.x264-FGT 1011.15 MB 1267 685 2 days 1 day
[i] Geostorm 2017 HC HDRip 650MB 662.87 MB 986 130 4 days 18 hours
[i] Super Dark Times (2017) [720p] [YTS AG] 750.11 MB 721 108 5 days 17 hours
[i] Tulip Fever (2017) [720p] [YTS AG] 771.4 MB 1050 302 6 days 21 hours
[i] Crooked.House.2017.WEB-DL.x264-FGT 1011.15 MB 807 269 2 days 17 hours
[i] Beta Test (2016) [720p] [YTS AG] 640.68 MB 907 204 6 days 21 hours