Noel Fisher | Родриго Санторо | Baixar toque para celular
Your IP Address is . Location is Your ISP and Government can track your torrent activity! Hide your IP with a VPN!

Crying.Freeman.1995.iNTERNAL.BDRip.x264-MANiC

DOWNLOAD TORRENT DOWNLOAD Watch Online

Posted on November 14, 2017 in Movies » Misc , verified torrent

Size: 834 MB , Seeds: 0 , Peers: 1 ( Updated January 17, 2018 - Refresh )

* Download via Magnet Link , * To download files you need a Bittorrent Client , * How to download torrents from Bit Torrent Scene?

Scrape History ( seeds + peers )

Internal Files

Crying.Freeman.1995.iNTERNAL.BDRip.x264-MANiC
crying.freeman.1995.internal.bdrip.x264-manic.mkv   828.43 MB
crying.freeman.1995.internal.bdrip.x264-manic.nfo   2.21 KB

Hash Code

01aafdc3a99eba149c414cb7302e72473a99321b

Description

Crying.Freeman.1995.iNTERNAL.BDRip.x264-MANiC

ImDb: http://www.imdb.com/title/tt0112750

SCREENSHOT

Complete name : crying.freeman.1995.internal.bdrip.x264-manic.mkv
Format : Matroska
Format version : Version 4 / Version 2
File size : 828 MiB
Duration : 1 h 41 min
Overall bit rate : 1 136 kb/s
Encoded date : UTC 2017-11-13 21:16:46
Writing application : mkvmerge v8.3.0 ('Over the Horizon') 64bit
Writing library : libebml v1.3.1 + libmatroska v1.4.2

Video
ID : 1
Format : AVC
Format/Info : Advanced Video Codec
Format profile : [email protected]
Format settings, CABAC : Yes
Format settings, ReFrames : 5 frames
Codec ID : V_MPEG4/ISO/AVC
Duration : 1 h 41 min
Bit rate : 986 kb/s
Width : 720 pixels
Height : 300 pixels
Display aspect ratio : 2.40:1
Frame rate mode : Constant
Frame rate : 23.976 (24000/1001) FPS
Color space : YUV
Chroma subsampling : 4:2:0
Bit depth : 8 bits
Scan type : Progressive
Bits/(Pixel*Frame) : 0.190
Stream size : 719 MiB (87%)
Writing library : x264 core 152 r2851 ba24899
Encoding settings : cabac=1 / ref=5 / deblock=1:-3:-3 / analyse=0x3:0x113 / me=umh / subme=8 / psy=1 / psy_rd=1.00:0.15 / mixed_ref=1 / me_range=16 / chroma_me=1 / trellis=2 / 8x8dct=1 / cqm=0 / deadzone=21,11 / fast_pskip=1 / chroma_qp_offset=-3 / threads=9 / lookahead_threads=1 / sliced_threads=0 / nr=0 / decimate=1 / interlaced=0 / bluray_compat=0 / constrained_intra=0 / bframes=3 / b_pyramid=2 / b_adapt=1 / b_bias=0 / direct=3 / weightb=1 / open_gop=0 / weightp=2 / keyint=240 / keyint_min=24 / scenecut=40 / intra_refresh=0 / rc_lookahead=50 / rc=crf / mbtree=1 / crf=19.0 / qcomp=0.60 / qpmin=0 / qpmax=69 / qpstep=4 / ip_ratio=1.40 / aq=1:1.00
Language : English
Default : Yes
Forced : No
Color range : Limited
Matrix coefficients : BT.709

Audio
ID : 2
Format : AAC
Format/Info : Advanced Audio Codec
Format profile : LC
Codec ID : A_AAC
Duration : 1 h 41 min
Bit rate : 148 kb/s
Channel(s) : 2 channels
Channel positions : Front: L R
Sampling rate : 48.0 kHz
Frame rate : 46.875 FPS (1024 spf)
Compression mode : Lossy
Delay relative to video : 9 ms
Stream size : 108 MiB (13%)
Language : English
Default : Yes
Forced : No

Text #1
ID : 3
Format : UTF-8
Codec ID : S_TEXT/UTF8
Codec ID/Info : UTF-8 Plain Text
Duration : 56 min 43 s
Bit rate : 4 b/s
Count of elements : 72
Stream size : 1.84 KiB (0%)
Title : English forced
Language : English
Default : Yes
Forced : Yes

Text #2
ID : 4
Format : UTF-8
Codec ID : S_TEXT/UTF8
Codec ID/Info : UTF-8 Plain Text
Duration : 1 h 33 min
Bit rate : 28 b/s
Count of elements : 629
Stream size : 19.7 KiB (0%)
Title : English forced
Language : English
Default : No
Forced : No

Menu
00:00:00.000 : en:00:00:00.000
00:03:34.214 : en:00:03:34.214
00:08:30.510 : en:00:08:30.510
00:15:55.538 : en:00:15:55.538
00:20:15.214 : en:00:20:15.214
00:27:45.539 : en:00:27:45.539
00:33:40.727 : en:00:33:40.727
00:40:27.675 : en:00:40:27.675
00:45:49.705 : en:00:45:49.705
00:48:46.966 : en:00:48:46.966
00:56:31.388 : en:00:56:31.388
01:02:17.525 : en:01:02:17.525
01:07:47.188 : en:01:07:47.188
01:14:46.774 : en:01:14:46.774
01:20:24.069 : en:01:20:24.069
01:25:42.679 : en:01:25:42.679
01:29:55.348 : en:01:29:55.348
01:37:33.181 : en:01:37:33.181

SCREENSHOT

SCREENSHOT

Click To View Screenshot

Click To View Screenshot

Click To View Screenshot

Torrent location

http://www.1337x.to/torrent/2588552/Crying-Freeman-1995-iNTERNAL-BDRip-x264-MANiC/

Trackers

Refresh Leechers : Updated January 17, 2018

1. http://bigfoot1942.sektori.org:6969/announce

2. http://tracker2.wasabii.com.tw:6969/announce

3. http://tracker.opentrackr.org/announce

4. http://announce.torrentsmd.com:6969/announce

5. http://tracker.trackerfix.com/announce

6. http://tracker.opentrackr.org/announce

7. udp://explodie.org:6969/announce

8. udp://mgtracker.org:6969/announce

9. udp://asnet.pw:2710/announce

10. udp://tracker.mgtracker.org:2710/announce

11. udp://tracker4.piratux.com:6969/announce

12. udp://tracker.trackerfix.com:80/announce

13. udp://tracker.pomf.se:80/announce

14. udp://tracker.x4w.co:6969/announce

15. udp://castradio.net:6969/announce

16. udp://ipv4.tracker.harry.lu:80/announce

17. udp://tracker.mg64.net:6881/announce

18. udp://tracker.sktorrent.net:6969/announce

19. udp://tracker.blackunicorn.xyz:6969/announce

20. udp://tracker.internetwarriors.net:1337/announce

21. udp://public.popcorn-tracker.org:6969/announce

22. udp://glotorrents.pw:6969/announce

23. udp://tracker.vanitycore.co:6969/announce

24. udp://tracker.trackerfix.com:80/announce

25. udp://p4p.arenabg.ch:1337/announce

26. udp://9.rarbg.me:2710/announce

27. udp://tracker.zer0day.to:1337/announce

28. udp://tracker.opentrackr.org:1337/announce

29. udp://tracker.pirateparty.gr:6969/announce

30. udp://9.rarbg.to:2710/announce

31. udp://eddie4.nl:6969/announce

32. udp://tracker.coppersurfer.tk:6969/announce

33. udp://tracker.leechers-paradise.org:6969/announce

34. udp://tracker.zer0day.to:1337/announce

35. udp://public.popcorn-tracker.org:6969/announce

36. udp://tracker.grepler.com:6969/announce

37. udp://ipv4.tracker.harry.lu:80/announce

38. udp://9.rarbg.to:2710/announce

39. udp://9.rarbg.me:2710/announce

40. udp://p4p.arenabg.com:1337/announce

41. udp://p4p.arenabg.ch:1337/announce

42. udp://tracker.opentrackr.org:1337/announce

43. udp://tracker.leechers-paradise.org:6969/announce

44. udp://eddie4.nl:6969/announce

45. udp://shadowshq.yi.org:6969/announce

46. udp://tracker.pirateparty.gr:6969/announce

47. udp://tracker.coppersurfer.tk:6969/announce

Comments

You must log in to add a comment.

Embed Code

Sharing Widget

Related torrents

FILENAME SIZE SEEDS PEERS ADDED UPD
[i] Crying Freeman 1995 REMASTERED iNTERNAL DVDRip XViD-MULTiPLY 711.32 MB 0 0 6 years 8 months
[i] Crying Freeman 1995 REMASTERED iNTERNAL DVDRip XViD-MULTiPLY 708.57 MB 0 1 6 years 8 months
[i] Crying.Freeman.1995.iNTERNAL.BDRip.x264-MANiC 847.79 MB 0 0 2 months 5 days

Top Movies ( auto generated report )

FILENAME SIZE SEEDS PEERS ADDED UPD
[i] Geostorm (2017) [1080p] [YTS AG] 1.67 GB 5515 2716 4 days 2 days
[i] Geostorm (2017) [720p] [YTS AG] 812.63 MB 5216 4259 4 days 2 days
[i] Jigsaw (2017) [720p] [YTS AG] 675.39 MB 3922 2227 5 days 4 days
[i] Jigsaw (2017) [1080p] [YTS AG] 1.4 GB 2479 970 5 days 2 days
[i] Mollys Game 2017 DVDScr XVID AC3 HQ Hive CM8 1.79 GB 2207 1893 5 days 4 days
[i] The Man from Earth Holocene (2017) [720p] [YTS AG] 726.46 MB 2189 1099 3 days 2 days
[i] Last Flag Flying (2017) [720p] [YTS AG] 903.74 MB 1947 1219 3 days 2 days
[i] The Man from Earth Holocene (2017) [1080p] [YTS AG] 1.51 GB 1803 773 3 days 2 days
[i] Last Flag Flying (2017) [1080p] [YTS AG] 1.89 GB 1802 781 3 days 2 days
[i] The Killing of a Sacred Deer (2017) [720p] [YTS AG] 893.13 MB 1685 944 3 days 2 days