Анонс The Last of Us 2 запланирован на ближа... | На GDC 2017 научат делать постельные сц... | Геймплейный ролик нового режима «Туман войны» для...

Come.Dine.With.Me.S08E73.720p.HDTV.x264-NORiTE

DOWNLOAD TORRENT DOWNLOAD Watch Online

Posted on November 14, 2017 in Series » Misc , verified torrent

Size: 434 MB , Seeds: 0 , Peers: 0 ( Updated November 20, 2017 - Refresh )

Could not find any peer statistics from any torrent tracker.
This does not mean the torrent is dead.

* Download via Magnet Link , * To download files you need a Bittorrent Client , * How to download torrents from Bit Torrent Scene?

Scrape History ( seeds + peers )

Internal Files

Come.Dine.With.Me.S08E73.720p.HDTV.x264-NORiTE
come.dine.with.me.s08e73.720p.hdtv-norite.mkv   426.93 MB
come.dine.with.me.s08e73.720p.hdtv-norite.nfo   1.54 KB

Hash Code

37ee02c09160eca31784f28e41cb494768e2020a

Description

Come.Dine.With.Me.S08E73.720p.HDTV.x264-NORiTE

SCREENSHOT

Complete name : come.dine.with.me.s08e73.720p.hdtv-norite.mkv
Format : Matroska
Format version : Version 4 / Version 2
File size : 427 MiB
Duration : 23 min 19 s
Overall bit rate : 2 560 kb/s
Encoded date : UTC 2017-11-14 12:55:08
Writing application : mkvmerge v9.6.0 ('Slave To Your Mind') 64bit
Writing library : libebml v1.3.4 + libmatroska v1.4.5

Video
ID : 1
Format : AVC
Format/Info : Advanced Video Codec
Format profile : [email protected]
Format settings, CABAC : Yes
Format settings, ReFrames : 5 frames
Codec ID : V_MPEG4/ISO/AVC
Duration : 23 min 19 s
Bit rate : 2 108 kb/s
Width : 1 280 pixels
Height : 720 pixels
Display aspect ratio : 16:9
Frame rate mode : Constant
Frame rate : 50.000 FPS
Color space : YUV
Chroma subsampling : 4:2:0
Bit depth : 8 bits
Scan type : Progressive
Bits/(Pixel*Frame) : 0.046
Stream size : 352 MiB (82%)
Writing library : x264 core 152 r2851 ba24899
Encoding settings : cabac=1 / ref=5 / deblock=1:0:0 / analyse=0x3:0x113 / me=hex / subme=8 / psy=1 / psy_rd=1.00:0.00 / mixed_ref=1 / me_range=16 / chroma_me=1 / trellis=2 / 8x8dct=1 / cqm=0 / deadzone=21,11 / fast_pskip=1 / chroma_qp_offset=-2 / threads=18 / lookahead_threads=3 / sliced_threads=0 / nr=0 / decimate=1 / interlaced=0 / bluray_compat=0 / stitchable=1 / constrained_intra=0 / bframes=3 / b_pyramid=2 / b_adapt=1 / b_bias=0 / direct=3 / weightb=1 / open_gop=0 / weightp=2 / keyint=250 / keyint_min=25 / scenecut=40 / intra_refresh=0 / rc_lookahead=50 / rc=crf / mbtree=1 / crf=21.0 / qcomp=0.60 / qpmin=0 / qpmax=69 / qpstep=4 / ip_ratio=1.40 / aq=1:1.00
Default : Yes
Forced : No
Color range : Limited
Color primaries : BT.709
Transfer characteristics : BT.709
Matrix coefficients : BT.709

Audio
ID : 2
Format : AC-3
Format/Info : Audio Coding 3
Format settings, Endianness : Big
Codec ID : A_AC3
Duration : 23 min 19 s
Bit rate mode : Constant
Bit rate : 448 kb/s
Channel(s) : 6 channels
Channel positions : Front: L C R, Side: L R, LFE
Sampling rate : 48.0 kHz
Frame rate : 31.250 FPS (1536 spf)
Bit depth : 16 bits
Compression mode : Lossy
Stream size : 74.7 MiB (18%)
Service kind : Complete Main
Default : Yes
Forced : No

SCREENSHOT

SCREENSHOT

Click To View Screenshot

Click To View Screenshot

Click To View Screenshot

Torrent location

http://www.1337x.to/torrent/2590026/Come-Dine-With-Me-S08E73-720p-HDTV-x264-NORiTE/

Trackers

Refresh Leechers : Updated November 20, 2017

1. http://bigfoot1942.sektori.org:6969/announce

2. http://tracker2.wasabii.com.tw:6969/announce

3. http://tracker.opentrackr.org/announce

4. http://announce.torrentsmd.com:6969/announce

5. http://tracker.trackerfix.com/announce

6. http://tracker.opentrackr.org/announce

7. udp://explodie.org:6969/announce

8. udp://mgtracker.org:6969/announce

9. udp://asnet.pw:2710/announce

10. udp://tracker.mgtracker.org:2710/announce

11. udp://tracker4.piratux.com:6969/announce

12. udp://tracker.trackerfix.com:80/announce

13. udp://tracker.pomf.se:80/announce

14. udp://tracker.x4w.co:6969/announce

15. udp://castradio.net:6969/announce

16. udp://ipv4.tracker.harry.lu:80/announce

17. udp://tracker.mg64.net:6881/announce

18. udp://tracker.sktorrent.net:6969/announce

19. udp://tracker.blackunicorn.xyz:6969/announce

20. udp://tracker.internetwarriors.net:1337/announce

21. udp://public.popcorn-tracker.org:6969/announce

22. udp://glotorrents.pw:6969/announce

23. udp://tracker.vanitycore.co:6969/announce

24. udp://tracker.trackerfix.com:80/announce

25. udp://p4p.arenabg.ch:1337/announce

26. udp://9.rarbg.me:2710/announce

27. udp://tracker.zer0day.to:1337/announce

28. udp://tracker.opentrackr.org:1337/announce

29. udp://tracker.pirateparty.gr:6969/announce

30. udp://9.rarbg.to:2710/announce

31. udp://eddie4.nl:6969/announce

32. udp://tracker.coppersurfer.tk:6969/announce

33. udp://tracker.leechers-paradise.org:6969/announce

34. udp://tracker.zer0day.to:1337/announce

35. udp://public.popcorn-tracker.org:6969/announce

36. udp://tracker.grepler.com:6969/announce

37. udp://ipv4.tracker.harry.lu:80/announce

38. udp://9.rarbg.to:2710/announce

39. udp://9.rarbg.me:2710/announce

40. udp://p4p.arenabg.com:1337/announce

41. udp://p4p.arenabg.ch:1337/announce

42. udp://tracker.opentrackr.org:1337/announce

43. udp://tracker.leechers-paradise.org:6969/announce

44. udp://eddie4.nl:6969/announce

45. udp://shadowshq.yi.org:6969/announce

46. udp://tracker.pirateparty.gr:6969/announce

47. udp://tracker.coppersurfer.tk:6969/announce

Comments

You must log in to add a comment.

Embed Code

Sharing Widget

Related torrents

FILENAME SIZE SEEDS PEERS ADDED UPD
[i] Come.Dine.With.Me.South.Africa.S03E04.HDTV.x264-DOCERE 353 MB 3 0 3 months 1 week
[i] Come.Dine.With.Me.S08E77.720p.HEVC.x265-MeGusta 188.51 MB 3 1 1 week 2 days
[i] Come.Dine.With.Me.S08E76.720p.HEVC.x265-MeGusta 217.36 MB 3 2 1 week 2 days
[i] Come.Dine.With.Me.S08E87.720p.HEVC.x265-MeGusta 303.59 MB 3 4 21 hours 19 hours
[i] Come.Dine.With.Me.S08E83.720p.HEVC.x265-MeGusta 200.71 MB 3 2 21 hours 19 hours
[i] Made.in.Chelsea.Does.Come.Dine.with.Me.PDTV.x264-TVC.mp4 [imass] 439.65 MB 2 0 2 years 3 months
[i] Come.Dine.With.Me.South.Africa.S02E02.HDTV.x264-DOCERE 421 MB 2 2 3 months 1 week
[i] Come.Dine.With.Me.S08E78.480p.x264-mSD 141.99 MB 2 1 1 week 3 days
[i] Come.Dine.With.Me.S08E86.720p.HEVC.x265-MeGusta 277.06 MB 2 3 21 hours 19 hours
[i] Come.Dine.With.Me.S09.Doncaster.WS.PDTV.XviD-C4TV 349.57 MB 1 1 7 years 2 years

Top Series ( auto generated report )

FILENAME SIZE SEEDS PEERS ADDED UPD
[i] The.Flash.2014.S04E07.HDTV.x264-KILLERS[eztv].mkv 276.66 MB 6239 1761 1 day 10 hours
[i] Lucifer.S03E08.HDTV.x264-SVA[eztv].mkv 298.79 MB 5423 1273 2 days 1 day
[i] Supergirl.S03E07.HDTV.x264-SVA[eztv].mkv 235.41 MB 4381 1002 2 days 1 day
[i] DCs.Legends.of.Tomorrow.S03E07.HDTV.x264-KILLERS[eztv].mkv 400.32 MB 3483 790 1 day 9 hours
[i] The.Good.Doctor.S01E08.HDTV.x264-KILLERS[eztv].mkv 247.91 MB 3470 587 2 days 1 day
[i] Greys.Anatomy.S14E08.HDTV.x264-KILLERS[eztv].mkv 304.41 MB 3274 208 6 days 12 hours
[i] Shameless.US.S08E03.WEB.h264-CONVOY[eztv].mkv 818.65 MB 2117 464 3 days 2 days
[i] The.Walking.Dead.S08E05.REPACK.HDTV.x264-SVA [eztv] 323.29 MB 2099 471 3 days 2 days
[i] Gotham.S04E09.HDTV.x264-SVA[eztv].mkv 279.29 MB 1924 189 6 days 10 hours
[i] This.Is.Us.S02E09.HDTV.x264-SVA[eztv].mkv 281.66 MB 1775 357 1 day 9 hours