Complications | Constantine | Containment

Chungking.Express.1994.iNTERNAL.BDRip.x264-MANiC

DOWNLOAD TORRENT DOWNLOAD Watch Online

Posted on November 14, 2017 in Movies » Misc , verified torrent

Size: 1.39 GB , Seeds: 1 , Peers: 0 ( Updated November 20, 2017 - Refresh )

* Download via Magnet Link , * To download files you need a Bittorrent Client , * How to download torrents from Bit Torrent Scene?

Scrape History ( seeds + peers )

Internal Files

Chungking.Express.1994.iNTERNAL.BDRip.x264-MANiC
chungking.express.1994.internal.bdrip.x264-manic.mkv   1.39 GB
chungking.express.1994.internal.bdrip.x264-manic.nfo   2.21 KB

Hash Code

0709063218057c726e211236011ca717ef24b8c3

Description

Chungking.Express.1994.iNTERNAL.BDRip.x264-MANiC

ImDb: http://www.imdb.com/title/tt0109424

SCREENSHOT

Complete name : chungking.express.1994.internal.bdrip.x264-manic.mkv
Format : Matroska
Format version : Version 4 / Version 2
File size : 1.39 GiB
Duration : 1 h 42 min
Overall bit rate : 1 932 kb/s
Encoded date : UTC 2017-11-13 20:07:24
Writing application : mkvmerge v8.3.0 ('Over the Horizon') 64bit
Writing library : libebml v1.3.1 + libmatroska v1.4.2

Video
ID : 1
Format : AVC
Format/Info : Advanced Video Codec
Format profile : [email protected]
Format settings, CABAC : Yes
Format settings, ReFrames : 5 frames
Codec ID : V_MPEG4/ISO/AVC
Duration : 1 h 42 min
Bit rate : 1 795 kb/s
Width : 720 pixels
Height : 432 pixels
Display aspect ratio : 5:3
Frame rate mode : Constant
Frame rate : 23.976 (24000/1001) FPS
Color space : YUV
Chroma subsampling : 4:2:0
Bit depth : 8 bits
Scan type : Progressive
Bits/(Pixel*Frame) : 0.241
Stream size : 1.29 GiB (93%)
Writing library : x264 core 152 r2851 ba24899
Encoding settings : cabac=1 / ref=5 / deblock=1:-3:-3 / analyse=0x3:0x113 / me=umh / subme=8 / psy=1 / psy_rd=1.00:0.15 / mixed_ref=1 / me_range=16 / chroma_me=1 / trellis=2 / 8x8dct=1 / cqm=0 / deadzone=21,11 / fast_pskip=1 / chroma_qp_offset=-3 / threads=13 / lookahead_threads=2 / sliced_threads=0 / nr=0 / decimate=1 / interlaced=0 / bluray_compat=0 / constrained_intra=0 / bframes=3 / b_pyramid=2 / b_adapt=1 / b_bias=0 / direct=3 / weightb=1 / open_gop=0 / weightp=2 / keyint=240 / keyint_min=24 / scenecut=40 / intra_refresh=0 / rc_lookahead=50 / rc=crf / mbtree=1 / crf=19.0 / qcomp=0.60 / qpmin=0 / qpmax=69 / qpstep=4 / ip_ratio=1.40 / aq=1:1.00
Language : English
Default : Yes
Forced : No
Color range : Limited
Matrix coefficients : BT.709

Audio
ID : 2
Format : AAC
Format/Info : Advanced Audio Codec
Format profile : LC
Codec ID : A_AAC
Duration : 1 h 42 min
Bit rate : 132 kb/s
Channel(s) : 2 channels
Channel positions : Front: L R
Sampling rate : 48.0 kHz
Frame rate : 46.875 FPS (1024 spf)
Compression mode : Lossy
Delay relative to video : 9 ms
Stream size : 99.2 MiB (7%)
Language : Chinese
Default : Yes
Forced : No

Text
ID : 3
Format : UTF-8
Codec ID : S_TEXT/UTF8
Codec ID/Info : UTF-8 Plain Text
Duration : 1 h 40 min
Bit rate : 34 b/s
Count of elements : 849
Stream size : 25.4 KiB (0%)
Title : English
Language : English
Default : Yes
Forced : Yes

Menu
00:00:00.000 : en:00:00:00.000
00:02:49.503 : en:00:02:49.503
00:06:02.070 : en:00:06:02.070
00:12:29.499 : en:00:12:29.499
00:17:18.704 : en:00:17:18.704
00:19:53.567 : en:00:19:53.567
00:22:15.000 : en:00:22:15.000
00:26:19.077 : en:00:26:19.077
00:32:54.723 : en:00:32:54.723
00:36:38.488 : en:00:36:38.488
00:39:01.130 : en:00:39:01.130
00:41:01.376 : en:00:41:01.376
00:46:20.778 : en:00:46:20.778
00:50:42.289 : en:00:50:42.289
00:53:50.394 : en:00:53:50.394
00:58:54.197 : en:00:58:54.197
01:02:54.104 : en:01:02:54.104
01:06:01.791 : en:01:06:01.791
01:10:32.186 : en:01:10:32.186
01:15:42.830 : en:01:15:42.830
01:20:30.826 : en:01:20:30.826
01:24:50.585 : en:01:24:50.585
01:28:13.330 : en:01:28:13.330
01:31:40.412 : en:01:31:40.412
01:35:22.967 : en:01:35:22.967
01:36:31.703 : en:01:36:31.703

SCREENSHOT

SCREENSHOT

Click To View Screenshot

Click To View Screenshot

Click To View Screenshot

Torrent location

http://www.1337x.to/torrent/2588554/Chungking-Express-1994-iNTERNAL-BDRip-x264-MANiC/

Trackers

Refresh Leechers : Updated November 20, 2017

1. http://bigfoot1942.sektori.org:6969/announce

2. http://tracker2.wasabii.com.tw:6969/announce

3. http://tracker.opentrackr.org/announce

4. http://announce.torrentsmd.com:6969/announce

5. http://tracker.trackerfix.com/announce

6. http://tracker.opentrackr.org/announce

7. udp://explodie.org:6969/announce

8. udp://mgtracker.org:6969/announce

9. udp://asnet.pw:2710/announce

10. udp://tracker.mgtracker.org:2710/announce

11. udp://tracker4.piratux.com:6969/announce

12. udp://tracker.trackerfix.com:80/announce

13. udp://tracker.pomf.se:80/announce

14. udp://tracker.x4w.co:6969/announce

15. udp://castradio.net:6969/announce

16. udp://ipv4.tracker.harry.lu:80/announce

17. udp://tracker.mg64.net:6881/announce

18. udp://tracker.sktorrent.net:6969/announce

19. udp://tracker.blackunicorn.xyz:6969/announce

20. udp://tracker.internetwarriors.net:1337/announce

21. udp://public.popcorn-tracker.org:6969/announce

22. udp://glotorrents.pw:6969/announce

23. udp://tracker.vanitycore.co:6969/announce

24. udp://tracker.trackerfix.com:80/announce

25. udp://p4p.arenabg.ch:1337/announce

26. udp://9.rarbg.me:2710/announce

27. udp://tracker.zer0day.to:1337/announce

28. udp://tracker.opentrackr.org:1337/announce

29. udp://tracker.pirateparty.gr:6969/announce

30. udp://9.rarbg.to:2710/announce

31. udp://eddie4.nl:6969/announce

32. udp://tracker.coppersurfer.tk:6969/announce

33. udp://tracker.leechers-paradise.org:6969/announce

34. udp://tracker.zer0day.to:1337/announce

35. udp://public.popcorn-tracker.org:6969/announce

36. udp://tracker.grepler.com:6969/announce

37. udp://ipv4.tracker.harry.lu:80/announce

38. udp://9.rarbg.to:2710/announce

39. udp://9.rarbg.me:2710/announce

40. udp://p4p.arenabg.com:1337/announce

41. udp://p4p.arenabg.ch:1337/announce

42. udp://tracker.opentrackr.org:1337/announce

43. udp://tracker.leechers-paradise.org:6969/announce

44. udp://eddie4.nl:6969/announce

45. udp://shadowshq.yi.org:6969/announce

46. udp://tracker.pirateparty.gr:6969/announce

47. udp://tracker.coppersurfer.tk:6969/announce

Comments

You must log in to add a comment.

Embed Code

Sharing Widget

Related torrents

FILENAME SIZE SEEDS PEERS ADDED UPD
[i] Chungking.Express.1994.iNTERNAL.Criterion.Dual.Audio.DVDRip.XviD 699.82 MB 0 0 4 years 5 months

Top Movies ( auto generated report )

FILENAME SIZE SEEDS PEERS ADDED UPD
[i] American.Assassin.2017.WEB-DL.x264-FGT [rarbg] 978.65 MB 1500 398 2 days 17 hours
[i] 6 Below Miracle on the Mountain (2017) [720p] [YTS AG] 720.98 MB 2002 664 4 days 1 day
[i] Geostorm.2017.KORSUB.HDRip.x264-STUTTERSHIT[rarbg] 959.15 MB 1670 576 3 days 1 day
[i] Home.Again.2017.WEB-DL.x264-FGT [rarbg] 854.15 MB 1280 761 2 days 1 day
[i] American.Made.2017.WEB-DL.x264-FGT 1011.15 MB 1267 685 2 days 1 day
[i] Geostorm 2017 HC HDRip 650MB 662.87 MB 986 130 4 days 19 hours
[i] Super Dark Times (2017) [720p] [YTS AG] 750.11 MB 721 108 5 days 17 hours
[i] Tulip Fever (2017) [720p] [YTS AG] 771.4 MB 1050 302 6 days 21 hours
[i] Crooked.House.2017.WEB-DL.x264-FGT 1011.15 MB 807 269 2 days 17 hours
[i] Beta Test (2016) [720p] [YTS AG] 640.68 MB 907 204 6 days 21 hours