Hawa Hawai 2.0 - Kavita Krishnamurthy & Shashaa Tirupati | Kavita Krishnamurthy & Shashaa Tirupati | Twist Kamariya - Harshdeep Kaur, Yasser Desai, Tanishk & Altamash Faridi

Castle in the Sky - Laputa - Il Castello nel Cielo (1986).H264.italian.Jpn.Ac3-5.1.sub.NUita.ita.iCV-MIRCrew

DOWNLOAD TORRENT DOWNLOAD Watch Online

Posted by robbyrs3 •385 on October 14, 2017 in Anime » Cartoons , verified torrent

Size: 1.66 GB , Seeds: 2 , Peers: 1 ( Updated November 17, 2017 - Refresh )

* Download via Magnet Link , * To download files you need a Bittorrent Client , * How to download torrents from Bit Torrent Scene?

Scrape History ( seeds + peers )

Internal Files

Laputa - Il Castello nel Cielo (1986).H264.ita.jpn.sub.ita.NUita.iCV-MIRCrew
Laputa - Il Castello nel Cielo (1986).H264.ita.jpn.sub.ita.NUita.iCV-MIRCrew.idx   1.25 KB
Laputa - Il Castello nel Cielo (1986).H264.ita.jpn.sub.ita.NUita.iCV-MIRCrew.ita.idx   51.21 KB
Laputa - Il Castello nel Cielo (1986).H264.ita.jpn.sub.ita.NUita.iCV-MIRCrew.ita.sub   6.05 MB
Laputa - Il Castello nel Cielo (1986).H264.ita.jpn.sub.ita.NUita.iCV-MIRCrew.mkv   1.64 GB
Laputa - Il Castello nel Cielo (1986).H264.ita.jpn.sub.ita.NUita.iCV-MIRCrew.NUita.idx   55.56 KB
Laputa - Il Castello nel Cielo (1986).H264.ita.jpn.sub.ita.NUita.iCV-MIRCrew.NUita.sub   6.89 MB
Laputa - Il Castello nel Cielo (1986).H264.ita.jpn.sub.ita.NUita.iCV-MIRCrew.sub   136 KB

Hash Code

cdbb6eae59825753b9ea67eceeab2d8a20e265c6

Description

Castle in the Sky - Laputa - Il Castello nel Cielo (1986).H264.italian.Jpn.Ac3-5.1.sub.NUita.ita.iCV-MIRCrew



SCREENSHOT
NO FOUND ONLY ORIGINAL RELEASE

SCREENSHOT

My release is always in double track audio italian and Original audio
for select it use VLC or dvd player home
not use wmp

Laputa - Il Castello nel Cielo - Castle in the Sky (1986)

Edizione Luky Red del 2012


SCREENSHOT

SCREENSHOT

SCREENSHOT

Premi

1987 - Ofuji Noburo Award al Mainichi Film Concours ad Hayao Miyazaki, il suo staff e la compagnia Tokuma Shoten



Titolo originale 天空の城ラピュタ
Tenkū no shiro Rapyuta
Lingua originale giapponese
Paese di produzione Giappone
Anno 1986
Durata 124 min
Rapporto 1.85:1
Genere animazione
Regia Hayao Miyazaki
Soggetto Hayao Miyazaki
Sceneggiatura Hayao Miyazaki
Produttore Isao Takahata
Produttore esecutivo Yasuyoshi Tokuma
Casa di produzione Studio Ghibli
Distribuzione (Italia) Buena Vista Home Entertainment (edizione DVD 2004)
Lucky Red (edizione 2012)
Montaggio Yoshihiro Kasahara, Hayao Miyazaki, Takeshi Seyama
Musiche Joe Hisaishi
Scenografia Toshio Nozaki, Nizou Yamamoto
Art director Toshio Nozaki, Nizou Yamamoto
Animatori Tsukasa Tannai, Yasuko Tachiki, Yoshinori Kanada
Sfondi Katsu Hisamura, Kazuhiro Kinoshita, Iijima Kumiko, Noriko Takaya, Masaki Yoshizaki

SCREENSHOT

Doppiatori italiani
Edizione Buena Vista 2004

Gabriele Patriarca: Pazu
Eva Padoan: Sheeta
Sonia Scotti: Dola
Danilo De Girolamo: Muska
Carlo Valli: Shalulu
Luca Dal Fabbro: Lui
Nanni Baldini: Anli
Paolo Buglioni: Daffi

Edizione Lucky Red 2012

Alex Polidori: Pazu
Eva Padoan: Sheeta
Sonia Scotti: Dola
Tony Sansone: Muska
Carlo Valli: Shalulu
Luca Dal Fabbro: Lui
Gianluca Crisafi: Anli
Fabrizio Temperini: Daffi
Dante Biagioni: Nonno Pom
Ambrogio Colombo: Generale Mouro
Valeria Vidali: Madge


SCREENSHOT

Un'aeronave viene attaccata da un gruppo di pirati dell'aria, comandati da una combattiva megera di nome Dola. A bordo dell'aeronave c'è una ragazzina prigioniera, Sheeta, circondata da uomini vestiti di nero. I pirati mirano al ciondolo della ragazza, che chiamano aeropietra. .............

SCREENSHOT

A young boy and a girl with a magic crystal must race against pirates and foreign agents in a search for a legendary floating castle.

SCREENSHOT

SCREENSHOT

SCREENSHOT SCREENSHOT SCREENSHOT

SCREENSHOT


[spoiler]
General
Unique ID : 214824707767892326171972704380359464185 (0xA19DBBD6F01A5642AC30616C1A56D4F9)
Complete name : Laputa - Il Castello nel Cielo (1986).H264.ita.jpn.sub.ita.NUita.iCV-MIRCrew.mkv
Format : Matroska
Format version : Version 2
File size : 1.64 GiB
Duration : 2h 5mn
Overall bit rate : 1 881 Kbps
Movie name : Laputa - Il Castello nel Cielo (1986).H264.ita.jpn.sub.ita.NUita.iCV-MIRCrew
Encoded date : UTC 2017-05-14T13:41:19Z
Writing application : mkvmerge v5.4.0 ('Piper') built on Mar 10 2012 13:34:39
Writing library : Lavf55.12.0

Video
ID : 1
Format : AVC
Format/Info : Advanced Video Codec
Format profile : [email protected]
Format settings, CABAC : Yes
Format settings, ReFrames : 4 frames
Muxing mode : Header stripping
Codec ID : V_MPEG4/ISO/AVC
Duration : 2h 5mn
Bit rate : 1 290 Kbps
Width : 720 pixels
Height : 384 pixels
Display aspect ratio : 1.875
Frame rate mode : Variable
Frame rate : 24.000 fps
Color space : YUV
Chroma subsampling : 4:2:0
Bit depth : 8 bits
Scan type : Progressive
Bits/(Pixel*Frame) : 0.194
Stream size : 1.11 GiB (67%)
Title : Laputa - Il Castello nel Cielo (1986).H264.ita.jpn.sub.ita.NUita.iCV-MIRCrew
Writing library : x264 core 142 r2479 dd79a61
Encoding settings : cabac=1 / ref=1 / deblock=1:0:0 / analyse=0x1:0x111 / me=hex / subme=2 / psy=1 / psy_rd=1.00:0.00 / mixed_ref=0 / me_range=16 / chroma_me=1 / trellis=0 / 8x8dct=0 / cqm=0 / deadzone=21,11 / fast_pskip=1 / chroma_qp_offset=0 / threads=12 / lookahead_threads=3 / sliced_threads=0 / nr=0 / decimate=1 / interlaced=0 / bluray_compat=0 / constrained_intra=0 / bframes=3 / b_pyramid=2 / b_adapt=1 / b_bias=0 / direct=1 / weightb=1 / open_gop=0 / weightp=1 / keyint=240 / keyint_min=24 / scenecut=40 / intra_refresh=0 / rc_lookahead=10 / rc=abr / mbtree=1 / bitrate=1290 / ratetol=1.0 / qcomp=0.60 / qpmin=0 / qpmax=69 / qpstep=4 / vbv_maxrate=20000 / vbv_bufsize=25000 / nal_hrd=none / filler=0 / ip_ratio=1.40 / aq=1:1.00
Language : Italian
Default : Yes
Forced : No
Color primaries : BT.709-5, BT.1361, IEC 61966-2-4, SMPTE RP177
Transfer characteristics : BT.709-5, BT.1361
Matrix coefficients : BT.709-5, BT.1361, IEC 61966-2-4 709, SMPTE RP177

Audio #1
ID : 2
Format : AC-3
Format/Info : Audio Coding 3
Mode extension : CM (complete main)
Muxing mode : Header stripping
Codec ID : A_AC3
Duration : 2h 5mn
Bit rate mode : Constant
Bit rate : 384 Kbps
Channel(s) : 6 channels
Channel positions : Front: L C R, Side: L R, LFE
Sampling rate : 48.0 KHz
Bit depth : 16 bits
Compression mode : Lossy
Delay relative to video : -5ms
Stream size : 344 MiB (20%)
Title : Surround
Language : Italian
Default : Yes
Forced : No

Audio #2
ID : 3
Format : AC-3
Format/Info : Audio Coding 3
Mode extension : CM (complete main)
Muxing mode : Header stripping
Codec ID : A_AC3
Duration : 2h 5mn
Bit rate mode : Constant
Bit rate : 192 Kbps
Channel(s) : 2 channels
Channel positions : Front: L R
Sampling rate : 48.0 KHz
Bit depth : 16 bits
Compression mode : Lossy
Delay relative to video : -5ms
Stream size : 172 MiB (10%)
Title : Stereo
Language : Japanese
Default : No
Forced : No

Text #1
ID : 4
Format : VobSub
Muxing mode : zlib
Codec ID : S_VOBSUB
Codec ID/Info : The same subtitle format used on DVDs
Language : Italian
Default : No
Forced : No

Text #2
ID : 5
Format : VobSub
Muxing mode : zlib
Codec ID : S_VOBSUB
Codec ID/Info : The same subtitle format used on DVDs
Language : Italian
Default : No
Forced : No

Text #3
ID : 6
Format : VobSub
Muxing mode : zlib
Codec ID : S_VOBSUB
Codec ID/Info : The same subtitle format used on DVDs
Language : Italian
Default : No
Forced : No

Menu
00:00:00.000 : :00:00:00.000
00:12:05.208 : :00:12:05.000
00:21:25.291 : :00:21:25.083
00:35:58.250 : :00:35:58.083
00:46:19.708 : :00:46:19.625
00:56:54.791 : :00:56:54.625
01:10:51.625 : :01:10:51.458
01:18:01.000 : :01:18:00.917
01:26:05.833 : :01:26:05.625
01:40:54.500 : :01:40:54.333
01:51:03.833 : :01:51:03.750
02:01:21.375 : :02:01:21.208



[/spoiler]



[SUB-NUita]

Trackers

Refresh Leechers : Updated November 17, 2017

1. udp://tracker.coppersurfer.tk:6969/announce

2. udp://tracker.opentrackr.org:1337/announce

3. udp://tracker.leechers-paradise.org:6969/announce

4. udp://glotorrents.pw:6969/announce

5. udp://p4p.arenabg.com:1337/announce

6. udp://p4p.arenabg.ch:1337/announce

7. udp://eddie4.nl:6969/announce

Comments

You must log in to add a comment.

Embed Code

Sharing Widget

Related torrents

FILENAME SIZE SEEDS PEERS ADDED UPD
[i] Peta Jensen Seduces Her Neighbor Johnny Castle [.MP4]
posted by kaczorrra in Porn - Movies
465.88 MB 83 42 4 days 3 days
[i] [AnimeRG] Laputa Castle in the Sky (1986) [MULTI-AUDIO] [x265] [1080p] [pseudo] 2 GB 28 6 1 year 2 months
[i] Harold.And.Kumar.Go.To.White.Castle.2004.UNRATED.1080p.REPACK.BluRay.x264.AC3-ETRG 3.56 GB 25 6 1 year 3 months
[i] The Man In The High Castle S01 Season 1 1080p 5.1Ch WebRip ReEnc-DeeJayAhmed 6.92 GB 24 6 1 year 3 months
[i] Castle 2009 S08E21 HDTV x264-KILLERS[ettv] 258.5 MB 24 1 1 year 2 months
[i] Sand Castle (2017) 720p WEBRip 850MB - MkvCage 855.3 MB 24 8 7 months 1 month
[i] The Last Castle 2001 720p BRRip x264 AAC-ETRG 986.3 MB 23 8 1 year 4 months
[i]
[i]
Castle.2009.S08E14.HDTV.XviD-FUM[ettv]
Series - Misc , Quality: Audio 9/10 - Video 9/10
348.5 MB 23 7 1 year 2 months
[i] Castle.2009.S08E12.HDTV.x264-LOL[ettv] 286.5 MB 19 0 1 year 3 months
[i]
[i]
Castle.2009.S08E13.HDTV.x264-KILLERS[ettv]
Series - Misc , Quality: Audio 9/10 - Video 9/10
296.5 MB 19 6 1 year 3 months

Top Anime ( auto generated report )

FILENAME SIZE SEEDS PEERS ADDED UPD
[i] Card Captor Sakura S02e15-21[BDmux 1080p - H264 - Ita Jap Ac3 - Cartelli SoftSub Ita] 6.15 GB 14 6 2 days 1 day