Antiques Roadshow US S22E01 WEB h264-TBS[ettv] | The Nick 2 | Watchfree.to
Your IP Address is . Location is Your ISP and Government can track your torrent activity! Hide your IP with a VPN!

Blade Runner 2049 (2017) HDRip XviD AC3 LLG

DOWNLOAD TORRENT DOWNLOAD Watch Online

Posted by LifeLongg •246 on January 11, 2018 in Movies » Drama , verified torrent

Size: 1.34 GB , Seeds: 28 , Peers: 20 ( Updated January 12, 2018 - Refresh )

* Download via Magnet Link , * To download files you need a Bittorrent Client , * How to download torrents from Bit Torrent Scene?

Scrape History ( seeds + peers )

Internal Files

Blade Runner 2049.(2017).HDRip.XviD.AC3.LLG
Sample.ts   16.28 MB
Blade Runner 2049.(2017).HDRip.XviD.AC3.LLG.mp4   1.32 GB

Hash Code

70986a6f179ae4219cb2f03a4e2ac364a72d4a1d

Description

******************************Thumbnail:**********************

SCREENSHOT

******************************Screenshots:********************

Screenshot 1

Screenshot 2

Screenshot 3

Screenshot 4

Screenshot 5

Screenshot 6

Screenshot 7

Screenshot 8

Screenshot 9

Screenshot 0

**************************************************************

Complete name : Blade Runner 2049.(2017).HDRip.XviD.AC3.LLG.mp4
Format : MPEG-4
Format profile : Base Media
Codec ID : isom (isom/iso2/avc1/mp41)
File size : 1.32 GiB
Duration : 2 h 43 min
Overall bit rate : 1 156 kb/s
Writing application : Lavf57.56.101

Video
ID : 1
Format : AVC
Format/Info : Advanced Video Codec
Format profile : [email protected]
Format settings : CABAC / 4 Ref Frames
Format settings, CABAC : Yes
Format settings, RefFrames : 4 frames
Codec ID : avc1
Codec ID/Info : Advanced Video Coding
Duration : 2 h 43 min
Bit rate : 900 kb/s
Width : 720 pixels
Height : 304 pixels
Display aspect ratio : 2.35:1
Frame rate mode : Constant
Frame rate : 23.976 (23976/1000) FPS
Color space : YUV
Chroma subsampling : 4:2:0
Bit depth : 8 bits
Scan type : Progressive
Bits/(Pixel*Frame) : 0.171
Stream size : 1.02 GiB (77%)


Audio
ID : 2
Format : AC-3
Format/Info : Audio Coding 3
Codec ID : ac-3
Duration : 2 h 43 min
Bit rate mode : Constant
Bit rate : 256 kb/s
Channel(s) : 6 channels
Channel positions : Front: L C R, Side: L R, LFE
Sampling rate : 48.0 kHz
Frame rate : 31.250 FPS (1536 SPF)
Bit depth : 16 bits
Compression mode : Lossy
Stream size : 299 MiB (22%)
Service kind : Complete Main
Default : Yes
Alternate group : 1

Trackers

Refresh Leechers : Updated January 12, 2018

1. udp://tracker.openbittorrent.com:80/announce

2. udp://tracker.opentrackr.org:1337/announce

Comments

You must log in to add a comment.

Embed Code

Sharing Widget

Related torrents

FILENAME SIZE SEEDS PEERS ADDED UPD
[i] Blade Runner 2049 2017 HDRip XViD AC3-ETRG
posted by juggs in Movies - Sci-fi
1.7 GB 103 23 2 weeks 3 days
[i] Blade.Runner.2049.HDRip.x264.AC3-Manning 2.36 GB 30 6 2 weeks 6 days
[i] Blade.Runner.2049.HDRip.x264.AC3-Manning[EtMovies] 2.37 GB 22 3 2 weeks 6 days
[i] Blade.Runner.2049.2017.HDRip.DD2.0.x264-BDP[SN] 1.02 GB 6 11 2 weeks 3 days
[i] Blade Runner 2049 2017 HDRip DD2 0 x264-BDP 1.02 GB 5 7 2 weeks 4 days

Top Movies ( auto generated report )

FILENAME SIZE SEEDS PEERS ADDED UPD
[i] The.Shape.of.Water.2017.DVDScr.XVID.AC3.HQ.Hive-CM8[EtMovies] 1.74 GB 8388 5370 1 week 1 day
[i] Blade Runner 2049 (2017) [1080p] [YTS AG] 2.51 GB 7969 3663 1 week 1 day
[i] Blade Runner 2049 (2017) [720p] [YTS AG] 1.2 GB 6613 3016 1 week 5 days
[i] Justice League 2017 1080p KORSUB HDRip x264 AAC2 0-STUTTERSHIT 3.88 GB 4053 995 3 weeks 1 week
[i] Three.Billboards.Outside.Ebbing,Missouri.2017.DVDScr.XVID.AC3.HQ.Hive-CM8[EtMovies] 1.53 GB 3750 1241 2 weeks 6 days
[i] It (2017) [720p] [YTS AG] 997.65 MB 3302 940 3 weeks 2 days
[i] Happy Death Day (2017) [720p] [YTS AG] 708.01 MB 2553 807 1 week 13 hours
[i] Happy Death Day (2017) [1080p] [YTS AG] 1.46 GB 2456 793 1 week 3 days
[i] Jigsaw 2017 1080p Web DL x264 AC3 TiTAN[EtHD] 3.21 GB 2449 1124 1 week 1 day
[i] It (2017) [1080p] [YTS AG] 2.06 GB 2422 419 3 weeks 2 days