2016, Top film 2016 | Top film 2016 | Makoto Shinkai

All I Want for Christmas Is You 2017 720p WEB-DL x264

DOWNLOAD TORRENT DOWNLOAD Watch Online

Posted by moviefreak •470 on November 14, 2017 in Movies » Animation , verified torrent

Size: 1.03 GB , Seeds: 152 , Peers: 137 ( Updated November 20, 2017 - Refresh )

* Download via Magnet Link , * To download files you need a Bittorrent Client , * How to download torrents from Bit Torrent Scene?

Scrape History ( seeds + peers )

Internal Files

All I Want for Christmas Is You 2017 720p WEB-DL x264
All I Want for Christmas Is You 2017 720p WEB-DL x264.mkv   1.03 GB

Hash Code

182e7d52bcf70fb6ca68c6ff8ce374fe79dc1936

Description


SCREENSHOT

General
Format : Matroska
Format version : Version 4 / Version 2
File size : 1.03 GiB
Duration : 1 h 30 min
Overall bit rate : 1 621 kb/s

Video
ID : 1
Format : AVC
Format/Info : Advanced Video Codec
Format profile : [email protected]
Format settings : CABAC / 4 Ref Frames
Format settings, CABAC : Yes
Format settings, RefFrames : 4 frames
Codec ID : V_MPEG4/ISO/AVC
Duration : 1 h 30 min
Bit rate : 1 500 kb/s
Width : 1 280 pixels
Height : 716 pixels
Display aspect ratio : 16:9
Frame rate mode : Constant
Frame rate : 23.976 (23976/1000) FPS
Color space : YUV
Chroma subsampling : 4:2:0
Bit depth : 8 bits
Scan type : Progressive
Bits/(Pixel*Frame) : 0.068
Stream size : 967 MiB (92%)
Writing library : x264 core 148 r2643 5c65704
Language : English
Default : Yes
Forced : No

Audio
ID : 2
Format : AAC
Format/Info : Advanced Audio Codec
Format profile : LC
Codec ID : A_AAC-2
Duration : 1 h 30 min
Bit rate : 128 kb/s
Channel(s) : 2 channels
Channel positions : Front: L R
Sampling rate : 44.1 kHz
Frame rate : 43.066 FPS (1024 SPF)
Compression mode : Lossy
Stream size : 83.0 MiB (8%)
Language : English
Default : Yes
Forced : No



SCREENSHOT
SCREENSHOT
SCREENSHOT
SCREENSHOT
SCREENSHOT
SCREENSHOT
SCREENSHOT

Trackers

Refresh Leechers : Updated November 20, 2017

1. http://ipv4.tracker.harry.lu/announce

2. http://ipv4.tracker.harry.lu:80/announce

3. udp://tracker.pirateparty.gr:6969/announce

4. udp://p4p.arenabg.com:1337/announce

5. udp://9.rarbg.me:2770/announce

6. udp://9.rarbg.com:2710/announce

7. udp://9.rarbg.to:2720/announce

8. http://tracker.devil-torrents.pl:80/announce

9. http://tracker.devil-torrents.pl/announce

10. http://open.kickasstracker.com/announce

11. http://open.kickasstracker.com:443/announce

12. udp://tracker.coppersurfer.tk:6969/announce

13. udp://tracker.leechers-paradise.org:6969/announce

14. udp://tracker.zer0day.to:1337/announce

15. http://tracker.devil-torrents.pl/announce

Comments

You must log in to add a comment.

Embed Code

Sharing Widget

Related torrents

FILENAME SIZE SEEDS PEERS ADDED UPD
[i] Body Language Secrets to Win More Negotiations - How to Read Any Opponent and Get What You Want (2016) (Epub) Gooner 1.39 MB 102 2 12 months 2 months
[i] How Do I Do That in Photoshop The Quickest Ways to Do the Things You Want to Do, Right Now! Scott Kelby, the world s 1 best-selling photography technique books 38.83 MB 101 4 1 month 4 days
[i] Scream All You Want (2017)[DVDRIP][.MP4]
posted by kaczorrra in Porn - Movies
1.21 GB 65 42 4 days 3 days
[i] Hustle Gang - We Want Smoke (2017) (Mp3 320kbps) [Hunter]
posted by The_Hunter in Music - Rap/hiphop
150.5 MB 61 6 1 month 1 week
[i] Taylor Swift - Call It What You Want (Single) (2017) (Mp3 320kbps) [Hunter]
posted by The_Hunter in Music - Pop
8.17 MB 56 9 2 weeks 6 days
[i] Body Language Secrets to Win More Negotiations How to Read Any Opponent and Get What You Want 1.39 MB 37 1 4 weeks 2 weeks
[i] How Do I Do That in Photoshop The Quickest Ways to Do the Things You Want to Do, Right Now 38.83 MB 25 1 3 months 2 weeks
[i] Thomas Anderson - Classified - The Book that the Governments, Banks and Corporations do not want you to see (pdf) - roflcopter2110
posted by roflcopter2110 in Ebooks - Misc
53.46 MB 24 1 3 months 2 weeks
[i] [SexArt] Coco De Mal - More Than You Want Part 3 (08.10.2017) rq.mp4
posted by samwarez in Porn - Movies
198.32 MB 24 2 1 month 1 week
[i] Body Language Secrets to Win More Negotiations - How to Read Any Opponent and Get What You Want 1.39 MB 21 0 8 months 3 months

Top Movies ( auto generated report )

FILENAME SIZE SEEDS PEERS ADDED UPD
[i] American.Assassin.2017.WEB-DL.x264-FGT [rarbg] 978.65 MB 1500 398 2 days 17 hours
[i] 6 Below Miracle on the Mountain (2017) [720p] [YTS AG] 720.98 MB 2002 664 4 days 1 day
[i] Geostorm.2017.KORSUB.HDRip.x264-STUTTERSHIT[rarbg] 959.15 MB 1670 576 3 days 1 day
[i] Home.Again.2017.WEB-DL.x264-FGT [rarbg] 854.15 MB 1280 761 2 days 1 day
[i] American.Made.2017.WEB-DL.x264-FGT 1011.15 MB 1267 685 2 days 1 day
[i] Geostorm 2017 HC HDRip 650MB 662.87 MB 986 130 4 days 19 hours
[i] Super Dark Times (2017) [720p] [YTS AG] 750.11 MB 721 108 5 days 17 hours
[i] Tulip Fever (2017) [720p] [YTS AG] 771.4 MB 1050 302 6 days 21 hours
[i] Crooked.House.2017.WEB-DL.x264-FGT 1011.15 MB 807 269 2 days 17 hours
[i] Beta Test (2016) [720p] [YTS AG] 640.68 MB 907 204 6 days 21 hours